<svg xmlns="http://www.w3.org/2000/svg">
<defs>
<font id="DBHeavent-Bold" horiz-adv-x="0" >
  <font-face 
    font-family="DB Heavent Bold"
    font-weight="700"
    font-stretch="normal"
    units-per-em="4096"
    panose-1="2 0 8 6 6 0 0 2 0 4"
    ascent="3276"
    descent="-820"
    x-height="1454"
    cap-height="1959"
    bbox="-2220 -1446 3772 3371"
    underline-thickness="82"
    underline-position="-627"
    unicode-range="U+000D-F880"
  />
<missing-glyph horiz-adv-x="1151" 
d="M1176 1114v-41h16q20 0 20 29q-1 3 -4 6q-6 6 -16 6h-16zM1184 1069h-8v-37h-13v94h29q15 0 24 -6t9 -18q0 -25 -8.5 -29t-20.5 -4l29 -37h-13zM1192 1020q17 0 28.5 5.5t19 13.5t10.5 17t3 17q0 34 -16.5 50t-44.5 16t-47 -16t-19 -50q0 -22 14.5 -37.5t51.5 -15.5z
M1192 1147q34 0 52 -20t18 -54q0 -22 -18 -41.5t-52 -19.5q-37 0 -55.5 19.5t-18.5 41.5q0 34 18.5 54t55.5 20zM561 881q27 -3 63.5 -7.5t76.5 -10.5t81.5 -13.5t78.5 -16.5t65.5 -19.5t44.5 -22.5q-29 54 -75 96.5t-101.5 72t-116.5 45t-121 15.5q-48 0 -94.5 -9
t-89 -27.5t-78.5 -46.5t-62 -65q50 4 101 6.5t100 2.5h127zM1049 1102v-397q-140 40 -311.5 69t-360.5 29q-133 0 -262 -12q12 61 48.5 117.5t93.5 99.5t132 68.5t164 25.5q86 0 155 -19.5t121.5 -48.5t88 -62t53.5 -59v189h78zM426 352q0 25 -15 35t-30 10q-25 0 -37 -10
t-12 -35q0 -41 49 -41q15 0 30 10t15 31zM90 389q0 63 25.5 112.5t67 83.5t94.5 52t108 18q57 0 108.5 -15.5t90 -47.5t61.5 -80.5t23 -114.5v-323h303v565h78v-635h-533v70h82v332q0 44 -16.5 76.5t-45 53.5t-66.5 31.5t-81 10.5t-83 -12t-70.5 -35.5t-49 -57t-18.5 -76.5
v-295l164 164q-6 1 -16.5 7.5t-20.5 17t-17.5 26t-7.5 35.5q0 53 31 82t84 29q23 0 43 -8.5t35 -23.5t24 -35.5t9 -43.5q0 -18 -5.5 -33.5t-13 -26.5t-16.5 -18t-15 -8q-2 -6 -14.5 -18.5t-31.5 -30.5t-42.5 -41t-46.5 -49q-31 -28 -64 -58.5t-67 -64.5h-90v385z" />
    <glyph glyph-name="plusminus" unicode="&#x2b;&#x2d;" horiz-adv-x="1667" 
d="M1556 1286v-307h-561v-573h-323v573h-566v307h566v578h323v-578h561zM1556 315v-315h-1450v315h1450z" />
    <glyph glyph-name="ellipsis" unicode="&#x2e;&#x2e;&#x2e;" horiz-adv-x="2777" 
d="M688 426v-426h-426v426h426zM1597 426v-426h-426v426h426zM2511 426v-426h-426v426h426z" />
    <glyph glyph-name="lessequal" unicode="&#x3c;&#x3d;" horiz-adv-x="1794" 
d="M582 1229l1081 -488v-340l-1548 693v274l1548 696v-344zM115 328h1548v-328h-1548v328z" />
    <glyph glyph-name="greaterequal" unicode="&#x3e;&#x3d;" horiz-adv-x="1794" 
d="M131 1720v344l1548 -696v-274l-1548 -693v340l1081 488zM131 0h1548v328h-1548v-328z" />
    <glyph glyph-name="fongmanfunnuthai" unicode="&#xe4f;&#x22;" horiz-adv-x="2028" 
d="M1090 2437h290l-28 -500h-230zM668 2437h286l-32 -500h-226zM131 836q0 122 31.5 234.5t89.5 210t139 178t180 137.5t212.5 88.5t236.5 31.5q121 0 232.5 -31.5t209 -88.5t177.5 -137.5t137 -178t88.5 -210t31.5 -234.5t-31.5 -234.5t-88.5 -210.5t-137 -178.5
t-177.5 -137.5t-209 -88.5t-232.5 -31.5q-123 0 -236.5 31.5t-212.5 88.5t-180 137.5t-139 178.5t-89.5 210.5t-31.5 234.5zM549 844q0 94 37.5 178t101.5 147.5t149.5 100.5t182.5 37q94 0 177.5 -37t146 -100.5t99 -147.5t36.5 -178q0 -97 -36.5 -182t-99 -148.5
t-146 -100t-177.5 -36.5q-97 0 -182.5 36.5t-149.5 100t-101.5 148.5t-37.5 182zM410 844q0 -83 21.5 -160.5t61 -145.5t95 -124t123.5 -96.5t146 -62.5t163 -22q82 0 158.5 22t143.5 62.5t122 96.5t94.5 124t61.5 145.5t22 160.5q0 124 -48 234t-130 191.5t-191.5 129
t-232.5 47.5q-128 0 -239 -47.5t-193.5 -129t-130 -191.5t-47.5 -234zM799 844q0 -46 16.5 -86.5t46 -70.5t70 -47t88.5 -17q43 0 81 17t66.5 47t45 70.5t16.5 86.5q0 43 -16.5 81.5t-45 67.5t-66.5 46.5t-81 17.5q-48 0 -88.5 -17.5t-70 -46.5t-46 -67.5t-16.5 -81.5z" />
    <glyph glyph-name="dochadaphinthuthai" unicode="&#xe0e;&#xe3a;" horiz-adv-x="1872" 
d="M1241 -963q0 54 21 102t56.5 83.5t83 56.5t101.5 21q52 0 99 -21t82 -56.5t56 -83.5t21 -102q0 -52 -21 -99t-56 -82t-82 -56t-99 -21q-54 0 -101.5 21t-83 56t-56.5 82t-21 99zM1716 -586h-385q-21 34 -51.5 67.5t-73.5 60.5t-102 44t-137 17q-69 0 -133 -14.5
t-126 -44.5t-123.5 -77.5t-125.5 -113.5v373q45 43 101 79.5t121 63.5t137 42t149 15q108 0 188.5 -23t138.5 -50v1179q0 58 -18.5 115.5t-62 103.5t-114.5 74.5t-177 30.5q-81 1 -143.5 -14.5t-107.5 -40.5t-72 -55t-38 -58q26 -23 45.5 -49t32 -59.5t19 -77t6.5 -101.5
v-901h-574v324h160v581q0 28 -6.5 57.5t-22.5 58.5t-44 57t-71 52q18 71 49.5 142t79.5 136t113.5 121t150 97.5t190 65.5t233.5 24q151 0 269 -27.5t206 -76t149 -116t99 -146.5t54.5 -167t16.5 -179v-1590z" />
    <glyph glyph-name="topatakphintuthai" unicode="&#xe0f;&#xe3a;" horiz-adv-x="1872" 
d="M1241 -963q0 54 21 102t56.5 83.5t83 56.5t101.5 21q52 0 99 -21t82 -56.5t56 -83.5t21 -102q0 -52 -21 -99t-56 -82t-82 -56t-99 -21q-54 0 -101.5 21t-83 56t-56.5 82t-21 99zM1716 -598h-409q-5 32 -16 65.5t-28 60.5t-40 44.5t-52 17.5q-27 0 -48 -17.5t-34.5 -44.5
t-20.5 -60.5t-7 -65.5h-316q0 31 -9 64.5t-25.5 62t-40 47t-52.5 18.5q-32 0 -56 -18.5t-39.5 -47t-23 -62t-7.5 -64.5h-373q0 132 36.5 227t98.5 156.5t144.5 91t174.5 29.5q48 0 90.5 -11t80 -29.5t69 -44t55.5 -54.5q22 27 50.5 51t62 42t70.5 28t75 10q56 0 98 -18.5
t70 -43.5v1196q0 58 -18.5 115.5t-62 103.5t-114.5 74.5t-177 30.5q-81 1 -143.5 -14.5t-107.5 -40.5t-72 -55t-38 -58q26 -23 45.5 -49t32 -59.5t19 -77t6.5 -101.5v-901h-574v324h160v581q0 28 -6.5 57.5t-22.5 58.5t-44 57t-71 52q18 71 49.5 142t79.5 136t113.5 121
t150 97.5t190 65.5t233.5 24q151 0 269 -27.5t206 -76t149 -116t99 -146.5t54.5 -167t16.5 -179v-1602z" />
    <glyph glyph-name="dochadasarauthai" unicode="&#xe0e;&#xe38;" horiz-adv-x="1872" 
d="M1335 -1446v422h-188v299h569v-721h-381zM1716 -586h-385q-21 34 -51.5 67.5t-73.5 60.5t-102 44t-137 17q-69 0 -133 -14.5t-126 -44.5t-123.5 -77.5t-125.5 -113.5v373q45 43 101 79.5t121 63.5t137 42t149 15q108 0 188.5 -23t138.5 -50v1179q0 58 -18.5 115.5
t-62 103.5t-114.5 74.5t-177 30.5q-81 1 -143.5 -14.5t-107.5 -40.5t-72 -55t-38 -58q26 -23 45.5 -49t32 -59.5t19 -77t6.5 -101.5v-901h-574v324h160v581q0 28 -6.5 57.5t-22.5 58.5t-44 57t-71 52q18 71 49.5 142t79.5 136t113.5 121t150 97.5t190 65.5t233.5 24
q151 0 269 -27.5t206 -76t149 -116t99 -146.5t54.5 -167t16.5 -179v-1590z" />
    <glyph glyph-name="topataksarauthai" unicode="&#xe0f;&#xe38;" horiz-adv-x="1872" 
d="M1335 -1446v422h-188v299h569v-721h-381zM1716 -598h-409q-5 32 -16 65.5t-28 60.5t-40 44.5t-52 17.5q-27 0 -48 -17.5t-34.5 -44.5t-20.5 -60.5t-7 -65.5h-316q0 31 -9 64.5t-25.5 62t-40 47t-52.5 18.5q-32 0 -56 -18.5t-39.5 -47t-23 -62t-7.5 -64.5h-373
q0 132 36.5 227t98.5 156.5t144.5 91t174.5 29.5q48 0 90.5 -11t80 -29.5t69 -44t55.5 -54.5q22 27 50.5 51t62 42t70.5 28t75 10q56 0 98 -18.5t70 -43.5v1196q0 58 -18.5 115.5t-62 103.5t-114.5 74.5t-177 30.5q-81 1 -143.5 -14.5t-107.5 -40.5t-72 -55t-38 -58
q26 -23 45.5 -49t32 -59.5t19 -77t6.5 -101.5v-901h-574v324h160v581q0 28 -6.5 57.5t-22.5 58.5t-44 57t-71 52q18 71 49.5 142t79.5 136t113.5 121t150 97.5t190 65.5t233.5 24q151 0 269 -27.5t206 -76t149 -116t99 -146.5t54.5 -167t16.5 -179v-1602z" />
    <glyph glyph-name="dochadasarauuthai" unicode="&#xe0e;&#xe39;" horiz-adv-x="1872" 
d="M590 -725h532v-262q0 -65 25.5 -98t81.5 -33q106 0 106 131v262h381v-262q0 -94 -25.5 -177.5t-83 -146t-150.5 -99t-228 -36.5q-122 0 -210 29.5t-147.5 82t-91 125.5t-39.5 160h-151v324zM1716 -586h-385q-21 34 -51.5 67.5t-73.5 60.5t-102 44t-137 17
q-69 0 -133 -14.5t-126 -44.5t-123.5 -77.5t-125.5 -113.5v373q45 43 101 79.5t121 63.5t137 42t149 15q108 0 188.5 -23t138.5 -50v1179q0 58 -18.5 115.5t-62 103.5t-114.5 74.5t-177 30.5q-81 1 -143.5 -14.5t-107.5 -40.5t-72 -55t-38 -58q26 -23 45.5 -49t32 -59.5
t19 -77t6.5 -101.5v-901h-574v324h160v581q0 28 -6.5 57.5t-22.5 58.5t-44 57t-71 52q18 71 49.5 142t79.5 136t113.5 121t150 97.5t190 65.5t233.5 24q151 0 269 -27.5t206 -76t149 -116t99 -146.5t54.5 -167t16.5 -179v-1590z" />
    <glyph glyph-name="topataksarauuthai" unicode="&#xe0f;&#xe39;" horiz-adv-x="1872" 
d="M590 -725h532v-262q0 -65 25.5 -98t81.5 -33q106 0 106 131v262h381v-262q0 -94 -25.5 -177.5t-83 -146t-150.5 -99t-228 -36.5q-122 0 -210 29.5t-147.5 82t-91 125.5t-39.5 160h-151v324zM1716 -598h-409q-5 32 -16 65.5t-28 60.5t-40 44.5t-52 17.5q-27 0 -48 -17.5
t-34.5 -44.5t-20.5 -60.5t-7 -65.5h-316q0 31 -9 64.5t-25.5 62t-40 47t-52.5 18.5q-32 0 -56 -18.5t-39.5 -47t-23 -62t-7.5 -64.5h-373q0 132 36.5 227t98.5 156.5t144.5 91t174.5 29.5q48 0 90.5 -11t80 -29.5t69 -44t55.5 -54.5q22 27 50.5 51t62 42t70.5 28t75 10
q56 0 98 -18.5t70 -43.5v1196q0 58 -18.5 115.5t-62 103.5t-114.5 74.5t-177 30.5q-81 1 -143.5 -14.5t-107.5 -40.5t-72 -55t-38 -58q26 -23 45.5 -49t32 -59.5t19 -77t6.5 -101.5v-901h-574v324h160v581q0 28 -6.5 57.5t-22.5 58.5t-44 57t-71 52q18 71 49.5 142t79.5 136
t113.5 121t150 97.5t190 65.5t233.5 24q151 0 269 -27.5t206 -76t149 -116t99 -146.5t54.5 -167t16.5 -179v-1602z" />
    <glyph glyph-name=".notdef" horiz-adv-x="1151" 
d="M1176 1114v-41h16q20 0 20 29q-1 3 -4 6q-6 6 -16 6h-16zM1184 1069h-8v-37h-13v94h29q15 0 24 -6t9 -18q0 -25 -8.5 -29t-20.5 -4l29 -37h-13zM1192 1020q17 0 28.5 5.5t19 13.5t10.5 17t3 17q0 34 -16.5 50t-44.5 16t-47 -16t-19 -50q0 -22 14.5 -37.5t51.5 -15.5z
M1192 1147q34 0 52 -20t18 -54q0 -22 -18 -41.5t-52 -19.5q-37 0 -55.5 19.5t-18.5 41.5q0 34 18.5 54t55.5 20zM561 881q27 -3 63.5 -7.5t76.5 -10.5t81.5 -13.5t78.5 -16.5t65.5 -19.5t44.5 -22.5q-29 54 -75 96.5t-101.5 72t-116.5 45t-121 15.5q-48 0 -94.5 -9
t-89 -27.5t-78.5 -46.5t-62 -65q50 4 101 6.5t100 2.5h127zM1049 1102v-397q-140 40 -311.5 69t-360.5 29q-133 0 -262 -12q12 61 48.5 117.5t93.5 99.5t132 68.5t164 25.5q86 0 155 -19.5t121.5 -48.5t88 -62t53.5 -59v189h78zM426 352q0 25 -15 35t-30 10q-25 0 -37 -10
t-12 -35q0 -41 49 -41q15 0 30 10t15 31zM90 389q0 63 25.5 112.5t67 83.5t94.5 52t108 18q57 0 108.5 -15.5t90 -47.5t61.5 -80.5t23 -114.5v-323h303v565h78v-635h-533v70h82v332q0 44 -16.5 76.5t-45 53.5t-66.5 31.5t-81 10.5t-83 -12t-70.5 -35.5t-49 -57t-18.5 -76.5
v-295l164 164q-6 1 -16.5 7.5t-20.5 17t-17.5 26t-7.5 35.5q0 53 31 82t84 29q23 0 43 -8.5t35 -23.5t24 -35.5t9 -43.5q0 -18 -5.5 -33.5t-13 -26.5t-16.5 -18t-15 -8q-2 -6 -14.5 -18.5t-31.5 -30.5t-42.5 -41t-46.5 -49q-31 -28 -64 -58.5t-67 -64.5h-90v385z" />
    <glyph glyph-name=".null" 
 />
    <glyph glyph-name=".null" 
 />
    <glyph glyph-name="nonmarkingreturn" unicode="&#xd;" horiz-adv-x="791" 
 />
    <glyph glyph-name="space" unicode=" " horiz-adv-x="696" 
 />
    <glyph glyph-name="exclam" unicode="!" horiz-adv-x="1065" 
d="M741 398v-398h-422v398h422zM676 550h-287l-70 771v638h426v-638z" />
    <glyph glyph-name="quotedbl" unicode="&#x22;" horiz-adv-x="1266" 
d="M1036 1969v-755h-331v755h331zM565 1969v-755h-332v755h332z" />
    <glyph glyph-name="numbersign" unicode="#" horiz-adv-x="1708" 
d="M741 836h209l41 286h-209zM111 516v320h303l41 286h-271v316h312l78 520h320l-75 -520h213l75 520h324l-71 -520h237v-316h-274l-45 -286h238v-320h-283l-74 -516h-328l74 516h-205l-79 -516h-324l72 516h-258z" />
    <glyph glyph-name="dollar" unicode="$" horiz-adv-x="1802" 
d="M508 662q0 -77 21 -136t58.5 -102t88 -71.5t110.5 -43.5v530l-49 16q-71 20 -140 44t-132 55.5t-116.5 73t-92.5 96.5t-61.5 126.5t-22.5 162.5t24 168.5t66 140t100 111.5t126.5 84t144 56.5t153.5 29.5v194h254v-202q121 -18 228.5 -64.5t188 -124t127 -187.5
t46.5 -254h-401q-3 60 -18 105.5t-39.5 79t-58 55.5t-73.5 36v-465l90 -24q35 -9 90.5 -24t118.5 -41t126.5 -66.5t115 -100.5t83.5 -143.5t32 -194.5q0 -123 -42.5 -230t-125.5 -189t-205.5 -135t-282.5 -68v-239h-254v239q-92 10 -178.5 35.5t-162.5 67.5t-138.5 100
t-107.5 133t-69.5 166t-23.5 200h402zM1294 542q0 48 -19.5 84t-53.5 63.5t-80.5 48t-100.5 37.5v-470q46 9 91.5 25.5t81.5 44.5t58.5 69t22.5 98zM573 1445q0 -38 9 -65.5t33 -49.5t65 -41t106 -40v409q-41 -8 -79.5 -23.5t-68 -41t-47.5 -62t-18 -86.5z" />
    <glyph glyph-name="percent" unicode="%" horiz-adv-x="2777" 
d="M520 1393q0 -47 5.5 -101t23.5 -100.5t51 -77t88 -30.5q54 0 87 30t51 76t24 100.5t6 102.5q0 45 -5 99t-21.5 100.5t-49.5 78t-88 31.5q-54 0 -87.5 -31.5t-52 -78t-25.5 -100.5t-7 -99zM201 1389q0 74 10 145t33.5 134.5t61 117t92 92t127.5 60t167 21.5
q143 0 237.5 -45t151 -122t80 -180t23.5 -219q0 -109 -27.5 -211t-86.5 -181t-152.5 -126.5t-225.5 -47.5q-137 0 -230.5 43t-151.5 119t-83.5 178.5t-25.5 221.5zM1921 542q0 -44 5.5 -97t22.5 -99.5t48.5 -77.5t83.5 -31q57 0 91.5 29.5t53 75.5t25 100t6.5 104
q0 46 -5.5 100.5t-23.5 100.5t-51 77t-88 31q-54 0 -87 -31t-51 -77.5t-24 -101.5t-6 -103zM1593 538q0 113 24.5 216.5t82 183t153 127t236.5 47.5q144 0 239 -45t151 -122t78.5 -180t22.5 -219q0 -110 -26.5 -211.5t-85.5 -179.5t-152.5 -124.5t-226.5 -46.5
q-135 0 -229.5 43.5t-153.5 119t-86 176.5t-27 215zM2198 1999l-1230 -2038h-385l1234 2038h381z" />
    <glyph glyph-name="ampersand" unicode="&#x26;" horiz-adv-x="1810" 
d="M1282 197q-49 -56 -112 -98t-134 -70.5t-147.5 -43t-151.5 -14.5q-144 0 -249 30.5t-178.5 80t-118.5 111t-70.5 124.5t-34 121t-8.5 99q0 109 33.5 195.5t90.5 156t133 125.5t161 104q-39 49 -72.5 96.5t-58.5 97.5t-39.5 104.5t-14.5 119.5q0 89 32.5 169.5t95 141
t154 96t210.5 35.5q101 0 196.5 -27.5t169 -82.5t118 -137t44.5 -191q0 -80 -26.5 -151t-70.5 -133t-103 -114t-123 -93q34 -40 59 -71.5t49 -61.5t51 -63.5t66 -78.5q12 50 19 103t14 118h340q-12 -98 -24 -170t-26 -129.5t-32.5 -107t-44.5 -101.5l422 -487h-443zM696 885
q-52 -32 -99 -66.5t-82 -75t-56 -90t-21 -112.5q0 -60 26 -108t69 -81t98.5 -51t113.5 -18q109 0 189.5 39.5t142.5 119.5zM664 1528q0 -29 10.5 -59t28.5 -61t42 -62.5t50 -63.5q34 23 67.5 49t60.5 56.5t43.5 65.5t16.5 75q0 29 -10.5 55t-31.5 45.5t-51.5 31t-70.5 11.5
q-29 0 -57 -8.5t-50 -26t-35 -44.5t-13 -64z" />
    <glyph glyph-name="quotesingle" unicode="'" horiz-adv-x="770" 
d="M549 1979v-755h-332v755h332z" />
    <glyph glyph-name="parenleft" unicode="(" horiz-adv-x="922" 
d="M610 -627q-106 165 -194.5 331t-152.5 337t-100 348t-36 365q0 174 30.5 351t91.5 352t152.5 345t212.5 328h373q-118 -191 -202 -367.5t-137 -345.5t-78 -333t-25 -330q0 -165 24 -328.5t77 -333t137 -348t204 -371.5h-377z" />
    <glyph glyph-name="parenright" unicode=")" horiz-adv-x="922" 
d="M-66 -627q120 193 204 371.5t137.5 348t77.5 333t24 328.5q0 166 -25 330t-78 333t-137.5 345.5t-202.5 367.5h373q121 -158 212.5 -328t153 -345t92 -352t30.5 -351q0 -188 -36 -365t-100 -348t-153 -337t-195 -331h-377z" />
    <glyph glyph-name="asterisk" unicode="*" horiz-adv-x="1139" 
d="M975 1790l106 -250l-290 -103l172 -237l-222 -156l-168 238l-163 -242l-238 152l172 245l-278 99l90 254l274 -99v287h279v-287z" />
    <glyph glyph-name="plus" unicode="+" horiz-adv-x="1667" 
d="M1556 946v-307h-561v-573h-323v573h-566v307h566v578h323v-578h561z" />
    <glyph glyph-name="comma" unicode="," horiz-adv-x="852" 
d="M639 406v-375q0 -87 -24 -170t-75.5 -154.5t-132 -128.5t-194.5 -92v254q43 11 78 38t59.5 63t37.5 77.5t13 81.5h-188v406h426z" />
    <glyph glyph-name="hyphen" unicode="-" horiz-adv-x="1393" 
d="M1286 946v-307h-1180v307h1180z" />
    <glyph glyph-name="period" unicode="." horiz-adv-x="852" 
d="M639 426v-426h-426v426h426z" />
    <glyph glyph-name="slash" unicode="/" horiz-adv-x="1114" 
d="M1160 1998l-812 -2039h-405l803 2039h414z" />
    <glyph glyph-name="zero" unicode="0" horiz-adv-x="1557" 
d="M56 979q0 80 3.5 165.5t14.5 171.5t32.5 169t58 157.5t89.5 137.5t127 109t172 72t224 26q169 0 288.5 -45t200 -121.5t127.5 -177.5t71 -213t31 -228.5t7 -222.5q0 -112 -7 -230.5t-31 -230.5t-71 -212.5t-127.5 -175.5t-200 -119t-288.5 -44q-126 0 -224 25t-172 70
t-127 107t-89.5 136t-58 157t-32.5 170t-14.5 175t-3.5 172zM470 979q0 -61 1.5 -132.5t10.5 -144t28 -140t53 -119.5t86 -83.5t128 -31.5q77 0 130 31.5t87.5 83.5t53.5 119.5t28 140t10.5 144t1.5 132.5q0 59 -1.5 130t-10.5 142.5t-28 138.5t-53.5 118.5t-87.5 82.5
t-130 31q-75 0 -126.5 -31t-86 -82.5t-53.5 -118.5t-28 -138.5t-11 -142.5t-2 -130z" />
    <glyph glyph-name="one" unicode="1" horiz-adv-x="1557" 
d="M163 1602q109 5 203 21t167.5 55t124.5 106t74 175h340v-1959h-406v1348q-57 -26 -113 -44t-116.5 -30t-128 -18.5t-145.5 -9.5v356z" />
    <glyph glyph-name="two" unicode="2" horiz-adv-x="1557" 
d="M93 1171q-15 175 28 324.5t134.5 258.5t227.5 171t306 62q140 0 263 -40t215 -118t145 -192t53 -261q0 -89 -21.5 -166t-58 -143t-85 -122.5t-103.5 -104.5t-113.5 -88.5t-113.5 -75.5q-62 -37 -125.5 -76.5t-121.5 -80t-105 -80.5t-74 -79h905v-360h-1417
q12 133 41.5 239.5t72.5 192.5t96.5 153.5t113.5 123.5t124 102.5t129 89.5q114 74 196 131t135 110.5t78 109.5t25 128q0 57 -21 102.5t-57 77.5t-84.5 49t-103.5 17q-75 0 -130 -39t-89.5 -102.5t-49.5 -145.5t-10 -168h-405z" />
    <glyph glyph-name="three" unicode="3" horiz-adv-x="1557" 
d="M654 1176h70q54 0 102.5 15t86 43t59.5 69t22 94q0 54 -19 92.5t-52 63.5t-79 37t-100 12q-69 0 -118 -22.5t-80 -65.5t-45.5 -105.5t-14.5 -142.5h-414q6 166 52 295.5t130.5 218.5t207 135.5t282.5 46.5q141 0 262 -33t209.5 -102.5t138.5 -177t50 -256.5
q0 -103 -43 -189.5t-117 -154.5q124 -65 183 -183.5t59 -279.5q0 -97 -27 -182t-74 -156.5t-110.5 -126.5t-137.5 -92q-83 -41 -183.5 -53.5t-205.5 -12.5q-161 0 -292.5 41t-224.5 126t-144 216.5t-51 312.5h409q3 -173 79 -258.5t224 -85.5q71 0 130 18.5t101 53.5
t65.5 84t23.5 111q0 66 -24 117t-65.5 86t-98.5 53t-123 18q-28 0 -50 -0.5t-53 -3.5v324z" />
    <glyph glyph-name="four" unicode="4" horiz-adv-x="1557" 
d="M871 1294l-385 -528h385v528zM1522 766v-356h-253v-410h-398v410h-827v323l901 1221h324v-1188h253z" />
    <glyph glyph-name="five" unicode="5" horiz-adv-x="1557" 
d="M605 1623l-62 -362q26 24 68 42.5t88.5 31t91.5 18.5t78 6q133 0 247.5 -40t199.5 -123t133.5 -211t48.5 -305q0 -88 -21 -174.5t-62.5 -165t-104 -145t-146 -115.5t-187.5 -77t-229 -28q-134 0 -254 41.5t-213 122.5t-153 201t-72 278h406q12 -63 38.5 -115.5
t65.5 -90.5t90 -59t113 -21q64 0 121 21t99 64t66.5 108.5t24.5 154.5q0 70 -24 130.5t-68.5 104t-106.5 68.5t-137 25q-92 0 -162 -29.5t-137 -93.5h-344l177 1074h1118v-336h-791z" />
    <glyph glyph-name="six" unicode="6" horiz-adv-x="1557" 
d="M802 991q-74 0 -131.5 -28t-96.5 -75t-59.5 -109.5t-20.5 -131.5t21 -130t60.5 -107t97 -72.5t129.5 -26.5q70 0 125 27.5t92.5 74t57 107.5t19.5 127q0 67 -18 129.5t-54 110t-91.5 76t-130.5 28.5zM834 1987q260 0 416.5 -139t206.5 -414h-385q-25 114 -86.5 177.5
t-163.5 63.5q-64 0 -115 -23t-90 -62.5t-67 -91.5t-46 -110t-28 -118.5t-13 -115.5q27 37 72 69.5t98 56.5t110 37.5t108 13.5q160 0 282 -51.5t205 -141t125.5 -211.5t42.5 -263q0 -78 -15.5 -160t-49.5 -159.5t-89 -146t-135 -120t-186 -81.5t-242 -30q-160 0 -276.5 42.5
t-198.5 115t-133 168t-79.5 202t-39 217.5t-10.5 214q0 136 15.5 267.5t52 249.5t96 217.5t146.5 172t203.5 113.5t268.5 41z" />
    <glyph glyph-name="seven" unicode="7" horiz-adv-x="1557" 
d="M1469 1647q-95 -90 -185.5 -205.5t-170 -249t-146 -280.5t-114.5 -300t-74.5 -308t-26.5 -304h-421q5 237 56.5 457.5t137.5 421t200 378t245 329.5h-873v373h1372v-312v0z" />
    <glyph glyph-name="eight" unicode="8" horiz-adv-x="1557" 
d="M136 1438q0 135 51.5 237.5t138.5 172t200.5 104.5t238.5 35q117 0 210.5 -21.5t165.5 -60t123.5 -90.5t85 -113t49 -128.5t15.5 -135.5q0 -112 -38.5 -206.5t-119.5 -162.5q58 -38 106 -87.5t82.5 -109t53 -127.5t18.5 -143q0 -101 -27 -187.5t-75 -157t-115.5 -125
t-148 -91t-172.5 -55.5t-189 -19q-153 0 -288.5 40.5t-236.5 120.5t-159.5 198.5t-58.5 275.5q0 309 248 463q-42 35 -71.5 78t-49 91t-28.5 99.5t-9 104.5zM533 1425q0 -54 20 -96.5t54.5 -72t81 -45t100.5 -15.5q52 0 94.5 17t72 47t45.5 72t16 93q0 52 -17.5 92t-49 67
t-75.5 40.5t-98 13.5q-51 0 -95.5 -13.5t-77.5 -40.5t-52 -67t-19 -92zM448 598q0 -68 26.5 -120.5t72 -88.5t108 -55t134.5 -19q69 0 128 21t102 59.5t67.5 91t24.5 115.5q0 58 -24 109t-67 89t-103 59.5t-132 21.5q-75 0 -137 -20t-106.5 -57t-69 -89.5t-24.5 -116.5z" />
    <glyph glyph-name="nine" unicode="9" horiz-adv-x="1557" 
d="M757 967q73 0 130.5 27t96.5 73.5t59.5 108.5t20.5 131t-21 129.5t-60.5 105t-96.5 70.5t-129 26q-71 0 -126 -27t-92.5 -72.5t-57 -105.5t-19.5 -126q0 -68 18 -129.5t54.5 -108.5t92 -74.5t130.5 -27.5zM724 -33q-129 0 -234.5 34.5t-184.5 104.5t-130.5 174t-73.5 244
h385q25 -113 87 -179t163 -66q64 0 115 22t89.5 60t66 88.5t45.5 107t27.5 115.5t12.5 114q-80 -87 -175.5 -125t-196.5 -38q-160 0 -284 51t-209.5 141t-130 212t-44.5 263q0 78 15.5 160t49.5 159.5t89 146t135 120t186 81.5t242 30q160 0 276.5 -42t198.5 -113.5
t133 -167t80 -202t39 -218.5t10 -216q0 -136 -16 -267.5t-52 -249.5t-95.5 -218t-146.5 -172.5t-204 -113t-268 -40.5z" />
    <glyph glyph-name="colon" unicode=":" horiz-adv-x="852" 
d="M639 426v-426h-426v426h426zM639 1454v-426h-426v426h426z" />
    <glyph glyph-name="semicolon" unicode=";" horiz-adv-x="852" 
d="M639 1454v-426h-426v426h426zM639 406v-375q0 -87 -24 -170t-75.5 -154.5t-132 -128.5t-194.5 -92v254q43 11 78 38t59.5 63t37.5 77.5t13 81.5h-188v406h426z" />
    <glyph glyph-name="less" unicode="&#x3c;" horiz-adv-x="1794" 
d="M582 819l1081 -487v-361l-1548 693v315l1548 696v-364z" />
    <glyph glyph-name="equal" unicode="=" horiz-adv-x="1667" 
d="M1540 1229v-324h-1417v324h1417zM1540 676v-324h-1417v324h1417z" />
    <glyph glyph-name="greater" unicode="&#x3e;" horiz-adv-x="1794" 
d="M131 1311v364l1548 -696v-315l-1548 -693v361l1081 487z" />
    <glyph glyph-name="question" unicode="?" horiz-adv-x="1544" 
d="M975 398v-398h-422v398h422zM98 1256q-5 170 42 308.5t136 237t216 152t282 53.5q141 0 258.5 -39.5t202 -114.5t131.5 -183t47 -245q0 -90 -25 -159.5t-63 -125t-84.5 -100.5t-89.5 -85q-37 -35 -73 -66t-64.5 -66t-46 -77.5t-17.5 -99.5v-104h-372v128q3 86 29 152.5
t64 120t84 97t89 84.5q31 30 65 66t62.5 76.5t46 85.5t14.5 93q-5 55 -23.5 100.5t-51.5 77.5t-79 49.5t-104 17.5q-81 0 -139.5 -35.5t-95.5 -95.5t-54.5 -138.5t-17.5 -164.5h-369z" />
    <glyph glyph-name="at" unicode="@" horiz-adv-x="2384" 
d="M1491 494q-59 3 -106.5 27.5t-81.5 72.5q-59 -45 -132.5 -76.5t-150.5 -31.5q-84 0 -155.5 32t-123.5 87.5t-81 131t-29 163.5q0 85 20 169.5t57.5 161t92 142.5t123 114t150.5 75.5t175 27.5q34 0 70 -8t69.5 -24.5t63.5 -42.5t51 -62l37 100h250l-221 -718
q-6 -23 -10 -47t-2 -43.5t11 -32.5t29 -13q54 0 113 36t108.5 99.5t82 149t32.5 184.5q0 154 -57.5 270.5t-154 194.5t-223.5 117.5t-265 39.5q-113 0 -215.5 -28t-190 -79.5t-159 -124t-121.5 -160.5t-77.5 -190t-27.5 -212q0 -109 29 -208.5t81 -185.5t125.5 -156.5
t163 -120.5t192 -77.5t212.5 -27.5q92 0 183 11t172.5 36.5t151 68t119.5 105.5h307q-81 -117 -186 -203.5t-225.5 -143.5t-254 -85.5t-271.5 -28.5q-154 0 -294.5 35.5t-262 101.5t-220.5 159t-169.5 208t-109 249.5t-38.5 281.5q0 144 39 275.5t109.5 245.5t169.5 206.5
t219.5 158.5t258.5 102t286 36q134 0 259.5 -29t235.5 -83t201.5 -131t157 -172t101.5 -207.5t36 -236.5q0 -116 -34.5 -212.5t-92 -174.5t-132 -136t-155.5 -95.5t-162.5 -54.5t-152.5 -13zM1253 1352q-53 0 -99.5 -20t-85.5 -54t-69 -78.5t-51 -93.5t-32 -99.5t-11 -95.5
q0 -39 12.5 -72t35 -57.5t53 -38t67.5 -13.5q45 0 86.5 21t77.5 56.5t65.5 81.5t50.5 96t32.5 100.5t11.5 94.5q0 31 -11.5 62t-31 55.5t-46 39.5t-55.5 15z" />
    <glyph glyph-name="A" unicode="A" horiz-adv-x="1974" 
d="M1975 0h-455l-167 468h-731l-167 -468h-455l762 1959h451zM740 790h491l-243 687z" />
    <glyph glyph-name="B" unicode="B" horiz-adv-x="1946" 
d="M991 1160q91 0 154 16.5t102 47t56.5 73.5t17.5 96q0 71 -25.5 115t-70 68.5t-105 33t-129.5 8.5h-373v-458h373zM918 1959q66 0 144 -1.5t155.5 -9t148 -23.5t121.5 -46q54 -32 102 -75t84 -98t57 -121t21 -144q0 -66 -18.5 -126t-51 -111.5t-76 -93.5t-93.5 -72
q85 -21 148 -67.5t104.5 -109.5t62 -136.5t20.5 -147.5q0 -111 -45 -215.5t-132.5 -184.5t-216 -128.5t-294.5 -48.5h-975v1959h734zM1122 341q71 0 125.5 20t91 55.5t55.5 84t19 105.5q0 65 -30 110.5t-79 74.5t-110.5 42.5t-124.5 13.5h-451v-506h504z" />
    <glyph glyph-name="C" unicode="C" horiz-adv-x="2025" 
d="M1491 1285q-10 73 -48 137.5t-95.5 112.5t-130.5 76t-153 28q-96 0 -173 -26t-135.5 -72t-100.5 -109t-69 -137.5t-39.5 -157.5t-12.5 -168q0 -81 12.5 -161.5t39.5 -153t69 -134.5t100.5 -107.5t135.5 -71.5t173 -26q99 0 177 33.5t134.5 89t90.5 127.5t43 149h415
q-16 -170 -85 -310t-181.5 -240.5t-263 -155.5t-330.5 -55q-151 0 -281 36t-236.5 102t-189 158.5t-139 205.5t-85.5 243t-29 271q0 145 29 277.5t85.5 247t139 208t189 160t236.5 102.5t281 36q161 0 305.5 -48.5t257.5 -140t186.5 -224.5t93.5 -302h-416z" />
    <glyph glyph-name="D" unicode="D" horiz-adv-x="1999" 
d="M920 341q35 0 91 6t120 28t129.5 66t118 119.5t85.5 188.5t33 274q0 131 -32.5 240t-101.5 187t-177 121t-258 43h-314v-1273h306zM899 1959q241 0 431 -58t322 -175t201.5 -292.5t69.5 -410.5q0 -245 -61 -435.5t-187 -321t-319 -198.5t-457 -68h-715v1959h715z" />
    <glyph glyph-name="E" unicode="E" horiz-adv-x="1737" 
d="M1663 1959v-354h-1049v-419h925v-345h-925v-492h1053v-349h-1483v1959h1479z" />
    <glyph glyph-name="F" unicode="F" horiz-adv-x="1634" 
d="M1597 1959v-354h-983v-417h846v-347h-846v-841h-430v1959h1413z" />
    <glyph glyph-name="G" unicode="G" horiz-adv-x="2150" 
d="M1634 201q-57 -71 -123 -117.5t-137.5 -74t-146 -38.5t-146.5 -11q-154 0 -287 35.5t-242.5 101t-194 157t-142 204t-87.5 242.5t-30 271q0 145 30 278.5t87.5 248.5t142 209t194 160.5t242 103t287.5 36.5q102 0 200.5 -19t187.5 -56.5t166 -93.5t135.5 -130.5
t97 -167.5t50.5 -203h-422q-18 74 -55.5 131.5t-91.5 96.5t-122 59.5t-146 20.5q-98 0 -176.5 -26t-139 -72t-104 -109.5t-71 -138.5t-40.5 -158.5t-13 -169.5q0 -122 29.5 -238t95 -207t169 -146t250.5 -55q100 0 183.5 26t145 78t99.5 129.5t47 180.5h-442v345h840v-1084
h-279z" />
    <glyph glyph-name="H" unicode="H" horiz-adv-x="2048" 
d="M614 1959v-771h820v771h430v-1959h-430v840h-820v-840h-430v1959h430z" />
    <glyph glyph-name="I" unicode="I" horiz-adv-x="852" 
d="M639 1959v-1959h-426v1959h426z" />
    <glyph glyph-name="J" unicode="J" horiz-adv-x="1488" 
d="M1303 634q0 -63 -7 -137t-30.5 -148t-67 -143t-116.5 -121.5t-180 -84.5t-256 -32q-125 0 -238 35.5t-199.5 113t-137.5 200.5t-51 298v132h398v-132q0 -48 10.5 -98.5t36 -92.5t68.5 -68.5t109 -26.5q77 0 121.5 31t67 79t28.5 105.5t6 110.5v1304h438v-1325z" />
    <glyph glyph-name="K" unicode="K" horiz-adv-x="1892" 
d="M184 1959h443v-811l778 811h541l-758 -763l799 -1196h-508l-590 895l-262 -265v-630h-443v1959z" />
    <glyph glyph-name="L" unicode="L" horiz-adv-x="1585" 
d="M618 1959v-1590h927v-369h-1361v1959h434z" />
    <glyph glyph-name="M" unicode="M" horiz-adv-x="2502" 
d="M184 1959h587l492 -1345h4l465 1345h586v-1959h-410v1389h-8l-509 -1389h-276l-513 1377h-4v-1377h-414v1959z" />
    <glyph glyph-name="N" unicode="N" horiz-adv-x="2060" 
d="M184 1959h430l844 -1313h4v1313h414v-1959h-434l-840 1312h-4v-1312h-414v1959z" />
    <glyph glyph-name="O" unicode="O" horiz-adv-x="2154" 
d="M516 979q0 -120 31 -236.5t98.5 -208.5t173 -148.5t254.5 -56.5q152 0 259.5 56.5t175.5 148.5t99 208.5t31 236.5q0 80 -13.5 160t-42.5 152.5t-74 135t-108 109t-144.5 72.5t-182.5 26q-99 0 -179 -26t-142 -72.5t-106.5 -109t-73.5 -135t-42.5 -152.5t-13.5 -160z
M82 979q0 133 27.5 261t82 242t137 209.5t193 164.5t248 108t303.5 39q167 0 306 -39t250 -108t194.5 -164.5t139 -209.5t83 -242t27.5 -261t-27.5 -260t-83 -240t-139 -207.5t-194.5 -163t-250 -106.5t-306 -38q-166 0 -303.5 38t-248 106.5t-193 163t-137 207.5t-82 240
t-27.5 260z" />
    <glyph glyph-name="P" unicode="P" horiz-adv-x="1843" 
d="M1004 1088q84 -2 146 16t102 52t59.5 82t19.5 107q0 58 -19.5 106t-59.5 82.5t-102 53t-146 18.5h-390v-517h390zM1090 1959q167 0 293 -41t210 -120t126 -193t42 -260q0 -145 -42 -256.5t-126 -187t-210 -114t-293 -36.5h-476v-751h-430v1959h906z" />
    <glyph glyph-name="Q" unicode="Q" horiz-adv-x="2154" 
d="M82 979q0 133 27.5 261t82 242t137 209.5t193 164.5t248 108t303.5 39q167 0 306 -39t250 -108t194.5 -164.5t139 -209.5t83 -242t27.5 -261q0 -118 -22 -231.5t-65.5 -216.5t-109 -193t-152.5 -162l306 -364h-469l-166 194q-73 -20 -153.5 -31t-168.5 -11
q-166 0 -303.5 38t-248 106.5t-193 163t-137 207.5t-82 240t-27.5 260zM1344 630l122 -146q45 47 77.5 104.5t53.5 121.5t31 132t10 137q0 80 -13.5 160t-42.5 152.5t-74 135t-108 109t-144.5 72.5t-182.5 26q-99 0 -179 -26t-142 -72.5t-106.5 -109t-73.5 -135
t-42.5 -152.5t-13.5 -160q0 -120 31 -236.5t98.5 -208.5t173 -148.5t254.5 -56.5h23t23 1l-255 300h480z" />
    <glyph glyph-name="R" unicode="R" horiz-adv-x="1982" 
d="M1448 918q53 -19 99.5 -52t84 -76.5t66 -97.5t45.5 -115l89 -322q24 -88 57 -151.5t59 -103.5h-454q-22 36 -50 98.5t-56 156.5l-76 283q-13 49 -37 93t-62 77t-92 52t-126 19h-372v-779h-435v1959h971q158 0 282.5 -40.5t210 -115.5t130.5 -180.5t45 -234.5
q0 -75 -20.5 -150.5t-66 -140t-117.5 -112.5t-175 -67zM1044 1120q68 0 131.5 13t113 42.5t79 78t29.5 119.5q0 48 -15.5 90t-47 73.5t-79.5 50t-112 18.5h-520v-485h421z" />
    <glyph glyph-name="S" unicode="S" horiz-adv-x="1843" 
d="M507 684q0 -98 34.5 -170.5t93.5 -120.5t137.5 -72t165.5 -24q39 0 83.5 4t88 14.5t83.5 28.5t70.5 45t49 65t18.5 88q0 52 -23 89.5t-63.5 65t-96 46.5t-120.5 35.5t-136.5 31.5t-144.5 34q-112 30 -216 71.5t-183.5 106.5t-127 159.5t-47.5 231.5q0 100 30 183t83 149
t124.5 115.5t154.5 82t173.5 48.5t180.5 16q104 0 202.5 -17t185 -51.5t158.5 -87.5t123.5 -125t80 -164.5t28.5 -205.5h-426q-5 88 -33 147.5t-76 95.5t-113 51.5t-143 15.5q-54 0 -108.5 -11.5t-98.5 -37.5t-72 -68.5t-28 -103.5q0 -37 8.5 -65t32 -51t64 -43t105.5 -41.5
t157 -46.5t217 -57q37 -9 94 -23t120.5 -39t128 -64t116 -98t83.5 -141.5t32 -193.5q0 -136 -54 -251.5t-159.5 -199.5t-261.5 -131.5t-360 -47.5q-111 0 -216.5 20.5t-199.5 62t-172.5 103t-135 142.5t-87.5 182t-30 222h426z" />
    <glyph glyph-name="T" unicode="T" horiz-adv-x="1599" 
d="M25 1586v373h1549v-373h-562v-1586h-434v1586h-553z" />
    <glyph glyph-name="U" unicode="U" horiz-adv-x="2073" 
d="M1884 755q0 -193 -55.5 -340t-162 -246.5t-261 -150t-352.5 -50.5q-206 0 -367 48t-271.5 145.5t-168.5 245.5t-58 348v1204h430v-1204q0 -101 25 -181.5t77.5 -136.5t135 -86t197.5 -30q107 0 183 30t124.5 86t71 136.5t22.5 181.5v1204h430v-1204z" />
    <glyph glyph-name="V" unicode="V" horiz-adv-x="1794" 
d="M684 0l-684 1959h467l434 -1353l434 1353h459l-692 -1959h-418z" />
    <glyph glyph-name="W" unicode="W" horiz-adv-x="2657" 
d="M981 0h-446l-519 1959h439l319 -1355h4l358 1355h385l358 -1355h4l319 1355h439l-519 -1959h-446l-347 1323z" />
    <glyph glyph-name="X" unicode="X" horiz-adv-x="1884" 
d="M37 1959h524l377 -630l397 630h500l-643 -955l684 -1004h-528l-410 662l-430 -662h-508l672 1004z" />
    <glyph glyph-name="Y" unicode="Y" horiz-adv-x="1978" 
d="M1212 0h-438v795l-770 1164h520l480 -771l466 771h504l-762 -1164v-795z" />
    <glyph glyph-name="Z" unicode="Z" horiz-adv-x="1737" 
d="M1106 1586h-942v373h1515v-321l-1065 -1269h1057v-369h-1642v313z" />
    <glyph glyph-name="bracketleft" unicode="[" horiz-adv-x="893" 
d="M598 1778v-2052h295v-353h-705v2757h705v-352h-295z" />
    <glyph glyph-name="backslash" unicode="\" horiz-adv-x="1114" 
d="M379 1998l797 -2039h-406l-804 2039h413z" />
    <glyph glyph-name="bracketright" unicode="]" horiz-adv-x="893" 
d="M0 1778v352h705v-2757h-705v353h295v2052h-295z" />
    <glyph glyph-name="asciicircum" unicode="^" horiz-adv-x="1851" 
d="M1057 2011l667 -1335h-335l-463 913l-451 -913h-348l672 1335h258z" />
    <glyph glyph-name="underscore" unicode="_" horiz-adv-x="1405" 
d="M1405 -131v-275h-1405v275h1405z" />
    <glyph glyph-name="grave" unicode="`" horiz-adv-x="1004" 
d="M565 2105l320 -528h-299l-480 528h459z" />
    <glyph glyph-name="a" unicode="a" horiz-adv-x="1556" 
d="M1016 701q-38 2 -93.5 -1t-116.5 -13t-122.5 -28.5t-110.5 -48.5t-79.5 -72.5t-30.5 -99.5q0 -54 21 -87.5t51.5 -52t64 -25.5t59.5 -7q72 -2 137 22t114 63t77.5 87.5t28.5 96.5v166zM1047 173q-54 -64 -113 -105.5t-122 -65.5t-128 -33.5t-131 -9.5q-101 0 -189.5 26.5
t-153.5 81t-102.5 137.5t-37.5 197q0 91 28 163t76 126.5t112.5 94t138.5 66.5t153.5 43t157 24t149.5 9t131 -1v47q0 63 -20.5 109t-56 76t-82 44.5t-98.5 14.5q-30 0 -71 -7t-79.5 -28.5t-69.5 -60.5t-42 -103h-393q17 93 53.5 163.5t88 122.5t116.5 87t138 56.5
t151.5 30.5t158.5 9q122 0 231 -26.5t190.5 -85.5t129.5 -153.5t48 -230.5v-635q0 -74 8.5 -162.5t43.5 -193.5l-380 1q-11 32 -19.5 80.5t-14.5 91.5z" />
    <glyph glyph-name="b" unicode="b" horiz-adv-x="1700" 
d="M524 0h-381v1999h402v-693q43 57 97 94.5t112 59t116.5 30.5t112.5 9q107 0 197 -29t162 -80t126 -122t90 -155.5t54 -178.5t18 -193q0 -101 -18 -198.5t-54 -184.5t-90 -160t-127 -126t-164.5 -83t-201.5 -30q-69 0 -130.5 10.5t-117.5 35.5t-106.5 67.5t-96.5 106.5
v-179zM532 733q0 -90 16.5 -175t56 -151t106 -105.5t166.5 -39.5q92 0 158.5 41.5t109.5 108t63.5 150t20.5 167.5q0 91 -18 175t-59.5 149t-109 104t-165.5 39q-99 0 -165 -39t-106 -103.5t-57 -148t-17 -172.5z" />
    <glyph glyph-name="c" unicode="c" horiz-adv-x="1540" 
d="M1081 877q-18 141 -80 211.5t-182 70.5q-100 0 -166 -38.5t-105.5 -102t-56 -144.5t-16.5 -165q0 -75 17 -150t54.5 -134.5t98 -96.5t146.5 -37q130 0 212.5 88t98.5 252l383 1q-12 -154 -65 -278.5t-142.5 -212t-212 -135t-274.5 -47.5q-180 0 -316 56t-226.5 156
t-136.5 237.5t-46 300.5t44 305.5t135 248.5t228.5 167t325.5 61q132 0 250.5 -35.5t210 -110t150.5 -190.5t73 -278h-402v0z" />
    <glyph glyph-name="d" unicode="d" horiz-adv-x="1700" 
d="M1176 183q-78 -118 -193.5 -171t-257.5 -53q-110 0 -201.5 30t-164.5 83t-127 126t-90 160t-54 184.5t-18 198.5q0 99 18 193t54 178.5t90 155.5t126 122t161.5 80t197.5 29q54 0 113.5 -10t118 -33.5t112 -61t94.5 -92.5v697h401v-1999h-380v183zM1167 733
q0 89 -17 172.5t-57 148t-106 103.5t-164 39t-165.5 -39t-109 -104t-59.5 -149t-18 -175q0 -84 20.5 -167.5t63.5 -150t109.5 -108t158.5 -41.5q100 0 166.5 39.5t106 105.5t55.5 151t16 175z" />
    <glyph glyph-name="e" unicode="e" horiz-adv-x="1602" 
d="M1141 858q-9 70 -33 130t-65 104.5t-99.5 70t-136.5 25.5q-64 0 -113 -16.5t-85.5 -43.5t-62 -62t-41.5 -71.5t-24 -72t-10 -64.5h670zM1497 458q-34 -131 -96 -225.5t-150.5 -155.5t-202 -90.5t-250.5 -29.5q-161 0 -296.5 55.5t-233.5 155t-153 236.5t-55 300
q0 164 49.5 307.5t145.5 250t237.5 168t326.5 61.5q128 0 232 -34.5t184.5 -95.5t138 -144.5t93 -182t49 -208t6.5 -222.5h-1051q4 -61 26.5 -123t63.5 -111.5t100.5 -81t136.5 -31.5q125 0 205.5 47t109.5 154h384z" />
    <glyph glyph-name="f" unicode="f" horiz-adv-x="877" 
d="M33 1167v287h184v164q0 98 31 173.5t91 127t147.5 78t201.5 26.5q37 0 90.5 -8.5t118.5 -36.5v-299q-26 9 -55 14.5t-55.5 7.5t-48 2.5t-33.5 0.5q-41 0 -64 -24.5t-23 -73.5v-152h230v-287h-230v-1167h-401v1167h-184z" />
    <glyph glyph-name="g" unicode="g" horiz-adv-x="1667" 
d="M1524 25q0 -62 -10 -136.5t-38.5 -149t-80.5 -144.5t-136.5 -123.5t-206.5 -86t-290 -32.5q-72 0 -145.5 12t-143 37t-131.5 64t-109.5 93t-77.5 124t-36 157h397q14 -58 43 -98t69 -64.5t88.5 -35.5t102.5 -11q83 0 144 28.5t100.5 79t58 120.5t17.5 153v168
q-46 -68 -96 -108t-105 -62t-114.5 -28.5t-123.5 -6.5q-167 0 -286.5 60.5t-196 164.5t-112 243.5t-35.5 297.5q0 99 18.5 193t54.5 177.5t89.5 154t124 121.5t157.5 79.5t191 28.5q70 0 130.5 -10t113.5 -33.5t100 -62t90 -95.5v160h385v-1429zM799 287q86 0 150 36t106 95
t63 135t21 156q0 93 -17 178.5t-56.5 150.5t-104.5 103.5t-162 38.5q-86 0 -148 -35.5t-102 -95t-59 -137.5t-19 -162q0 -83 16 -166t54 -149t101 -107t157 -41z" />
    <glyph glyph-name="h" unicode="h" horiz-adv-x="1647" 
d="M143 1999h381v-719q51 61 104.5 102.5t110 66.5t115.5 35.5t121 10.5q160 0 263 -43.5t163 -122.5t83 -190t23 -246v-893h-401v819q0 181 -58 271t-196 90q-80 0 -138 -24t-95.5 -74.5t-55.5 -129.5t-18 -190v-762h-402v1999z" />
    <glyph glyph-name="i" unicode="i" horiz-adv-x="728" 
d="M163 1630v369h402v-369h-402zM565 1454v-1454h-402v1454h402z" />
    <glyph glyph-name="j" unicode="j" horiz-adv-x="729" 
d="M566 -193q0 -109 -29.5 -187t-84.5 -128.5t-133 -74t-175 -23.5q-40 0 -94 5t-107 11v344q40 -5 67 -7t46 -3.5t33.5 -1.5h29.5q25 0 35 21.5t10 76.5v1614h402v-1647zM164 1630v369h402v-369h-402z" />
    <glyph glyph-name="k" unicode="k" horiz-adv-x="1470" 
d="M541 1999v-999l471 454h520l-576 -532l613 -922h-447l-445 660l-136 -131v-529h-398v1999h398z" />
    <glyph glyph-name="l" unicode="l" horiz-adv-x="725" 
d="M561 1999v-1999h-397v1999h397z" />
    <glyph glyph-name="m" unicode="m" horiz-adv-x="2507" 
d="M144 1454h377v-190q76 118 192 172.5t259 54.5q67 0 130.5 -15.5t117 -49t94.5 -85.5t65 -125q24 56 69.5 106t105.5 87.5t131.5 59.5t146.5 22q117 0 214.5 -28t168 -90.5t110 -161.5t39.5 -240v-971h-397v831q0 72 -9.5 135t-36 109.5t-74.5 73.5t-126 27
q-72 0 -123 -36.5t-82.5 -93.5t-46 -127.5t-14.5 -137.5v-781h-401v824q0 37 -1.5 77t-9 79.5t-21.5 75t-39.5 62t-64 42.5t-93.5 16q-44 0 -93.5 -21.5t-91.5 -68.5t-70 -121t-28 -180v-785h-398v1454z" />
    <glyph glyph-name="n" unicode="n" horiz-adv-x="1651" 
d="M144 1454h381v-200q57 79 121 126.5t127.5 73t123.5 33.5t109 8q139 0 235 -43t155 -118.5t85.5 -178.5t26.5 -224v-931h-401v819q0 361 -231 361q-70 0 -130 -26t-104.5 -82.5t-70 -146.5t-25.5 -218v-707h-402v1454z" />
    <glyph glyph-name="o" unicode="o" horiz-adv-x="1647" 
d="M64 725q0 174 56 317t157 245t240 158t306 56q168 0 308.5 -56t242 -158t157.5 -245t56 -317t-56 -317t-157.5 -245t-242 -158t-308.5 -56q-167 0 -306 56t-240 158t-157 245t-56 317zM465 725q0 -87 18 -171t60 -149t110.5 -105t169.5 -40q103 0 173.5 40t113.5 105
t61.5 149t18.5 171t-20 171t-64 149t-114 105t-169 40q-98 0 -166 -40t-110.5 -105t-62 -149t-19.5 -171z" />
    <glyph glyph-name="p" unicode="p" horiz-adv-x="1700" 
d="M524 1270q83 120 195.5 172.5t255.5 52.5q110 0 201.5 -30t164.5 -83t127 -126t90 -160t54 -184.5t18 -198.5q0 -99 -18 -193t-54 -178.5t-90 -155.5t-126 -122t-162 -80t-197 -29q-54 0 -111.5 9.5t-115 32t-111.5 60t-100 92.5v-694h-402v1999h381v-184zM532 721
q0 -89 17 -172.5t57 -148t106 -103.5t165 -39q98 0 165.5 39t109 104t59.5 149t18 175q0 84 -20.5 167.5t-63.5 150t-109.5 108t-158.5 41.5q-100 0 -166.5 -39.5t-106 -105t-56 -150.5t-16.5 -176z" />
    <glyph glyph-name="q" unicode="q" horiz-adv-x="1700" 
d="M1176 1454h380v-1999h-401v697q-46 -55 -100 -92.5t-111.5 -61t-115 -33.5t-111.5 -10q-108 0 -197.5 29t-161.5 80t-126 122t-90 155.5t-54 178.5t-18 193q0 101 18 198.5t54 184.5t90 160t127 126t164.5 83t201.5 30q70 0 133 -11.5t119.5 -38t105.5 -69.5t93 -106v184
zM1167 721q0 91 -16 176t-55.5 150.5t-106 105t-166.5 39.5q-92 0 -158.5 -41.5t-109.5 -108t-63.5 -150t-20.5 -167.5q0 -91 18 -175t59.5 -149t109 -104t165.5 -39t164 39t106 103.5t57 148t17 172.5z" />
    <glyph glyph-name="r" unicode="r" horiz-adv-x="1049" 
d="M528 1454v-197q40 52 92 94.5t115 72.5t136.5 45t156.5 14v-389q-137 7 -230 -22.5t-150 -89t-82 -145t-25 -190.5v-647h-398v1454h385z" />
    <glyph glyph-name="s" unicode="s" horiz-adv-x="1477" 
d="M461 489q6 -59 29.5 -105.5t61 -79t87 -49.5t108.5 -17q43 0 88.5 8t83 27.5t62 53.5t24.5 87q0 44 -25.5 74t-77 53.5t-130 43t-184.5 42.5q-86 18 -168.5 46t-147 73.5t-104 112t-39.5 161.5q0 92 24.5 162.5t67.5 121.5t101.5 85.5t127 55.5t144 29.5t152.5 8.5
q118 0 224 -24t188 -79.5t134 -145.5t63 -222h-373q-9 97 -74 146.5t-170 49.5q-34 0 -71 -6.5t-68 -22t-51.5 -41t-20.5 -63.5q0 -54 36.5 -84t97 -49t139.5 -32t163 -33q88 -20 167.5 -49.5t140 -76t96 -115.5t35.5 -169q0 -95 -26 -169.5t-71.5 -130.5t-108 -95t-136 -63
t-154.5 -35t-164 -11q-124 0 -240 31.5t-206.5 96.5t-147.5 164t-63 234h376z" />
    <glyph glyph-name="t" unicode="t" horiz-adv-x="918" 
d="M229 1167h-184v287h184v377h398v-377h229v-287h-229l1 -725q0 -55 10 -76.5t35 -21.5h30.5t35.5 1.5t48 3.5t68 7v-344q-53 -6 -107 -11t-94 -5q-97 0 -175 23.5t-133 74t-84.5 128.5t-29.5 187z" />
    <glyph glyph-name="u" unicode="u" horiz-adv-x="1675" 
d="M1520 0h-381v187q-53 -64 -111.5 -107.5t-118.5 -70.5t-120 -38.5t-115 -11.5q-148 0 -247.5 43.5t-159.5 122.5t-85.5 190t-25.5 246v893h401v-871q0 -71 14.5 -128.5t43.5 -97.5t72.5 -61.5t101.5 -21.5q88 0 150.5 29.5t102 80.5t58 119.5t18.5 145.5v805h402v-1454z
" />
    <glyph glyph-name="v" unicode="v" horiz-adv-x="1483" 
d="M946 0h-405l-525 1454h426l308 -967h4l307 967h405z" />
    <glyph glyph-name="w" unicode="w" horiz-adv-x="2294" 
d="M1794 0h-369l-282 975h-4l-267 -975h-372l-484 1454h422l267 -954h8l241 954h389l246 -950h4l271 950h409z" />
    <glyph glyph-name="x" unicode="x" horiz-adv-x="1442" 
d="M487 766l-471 688h447l258 -393l254 393h434l-471 -680l516 -774h-434l-307 471l-303 -471h-426z" />
    <glyph glyph-name="y" unicode="y" horiz-adv-x="1532" 
d="M901 -238q-32 -89 -75.5 -152.5t-104.5 -104t-141.5 -59.5t-186.5 -19q-62 0 -123.5 5t-126.5 11v319q59 -6 119 -12.5t119 -3.5q54 6 90 39.5t54 80t19 99t-16 96.5l-512 1393h422l336 -1040h4l328 1040h410z" />
    <glyph glyph-name="z" unicode="z" horiz-adv-x="1462" 
d="M106 299l742 856h-709v299h1200v-295l-749 -860h770v-299h-1254v299z" />
    <glyph glyph-name="braceleft" unicode="{" horiz-adv-x="1049" 
d="M803 1798q-14 0 -23.5 -13t-15 -34t-8 -48t-2.5 -56v-521q0 -60 -14 -114.5t-36 -102t-49 -87t-53 -68.5q31 -25 58.5 -58t48.5 -79t33 -107t12 -141v-521q0 -26 2.5 -51.5t8 -46t15 -33t23.5 -12.5h188v-332h-246q-66 0 -135.5 28.5t-127 85t-94 141t-36.5 196.5v504
q0 55 -18 99t-49 74.5t-72.5 47t-89.5 16.5v365q48 0 89.5 18.5t72.5 51t49 75.5t18 92v508q0 109 36.5 194t94 143t127 88t135.5 30h246v-332h-188z" />
    <glyph glyph-name="bar" unicode="|" horiz-adv-x="696" 
d="M532 2200v-2790h-368v2790h368z" />
    <glyph glyph-name="braceright" unicode="}" horiz-adv-x="1053" 
d="M57 1798v332h246q66 0 135.5 -30t127 -88t94 -143t36.5 -194v-508q0 -49 18 -92t49.5 -75.5t73 -51t89.5 -18.5v-365q-48 0 -89.5 -16.5t-73 -47t-49.5 -74.5t-18 -99v-504q0 -112 -36.5 -196.5t-94 -141t-127 -85t-135.5 -28.5h-246v332h189q14 0 23.5 12.5t15 33t8 46
t2.5 51.5v521q0 80 12 141t33 107t48.5 79t57.5 58q-26 29 -53 68.5t-48.5 87t-35.5 102t-14 114.5v521q0 29 -2.5 56t-8 48t-15 34t-23.5 13h-189z" />
    <glyph glyph-name="asciitilde" unicode="~" horiz-adv-x="1589" 
d="M598 724q-56 0 -93 -50t-35 -149h-347q-2 77 14.5 143t46.5 120t71 95.5t87.5 70t96 43t96.5 14.5q64 0 116 -14t94.5 -35.5t76.5 -46.5t63.5 -46.5t54.5 -35.5t49 -14q60 0 96.5 45.5t34.5 146.5h347q2 -77 -14.5 -143t-46.5 -120t-71 -95.5t-87.5 -70t-96 -43
t-96.5 -14.5q-67 0 -119 14.5t-94 37t-75.5 48t-62 48t-54.5 37t-52 14.5z" />
    <glyph glyph-name="saraileftthai" 
d="M-1933 1917l164 319h1064v-319h-1228z" />
    <glyph glyph-name="saraileftthai" unicode="&#xf701;" 
d="M-1933 1917l164 319h1064v-319h-1228z" />
    <glyph glyph-name="saraiileftthai" 
d="M-1769 2236h667v258h397v-577h-1228z" />
    <glyph glyph-name="saraiileftthai" unicode="&#xf702;" 
d="M-1769 2236h667v258h397v-577h-1228z" />
    <glyph glyph-name="saraueleftthai" 
d="M-1294 2249q0 64 24.5 121t66.5 99t98.5 66.5t121.5 24.5q64 0 121 -25t99 -68t66.5 -100.5t24.5 -121.5q0 -71 -24.5 -131t-66.5 -104t-99 -68.5t-121 -24.5h-950l164 319h475v13zM-1094 2249q0 -22 9 -41.5t24 -34t35 -23t43 -8.5t43 8.5t35 23t24 34t9 41.5
q0 23 -9 43t-24 35t-35 23.5t-43 8.5t-43 -8.5t-35 -23.5t-24 -35t-9 -43z" />
    <glyph glyph-name="saraueleftthai" unicode="&#xf703;" 
d="M-1294 2249q0 64 24.5 121t66.5 99t98.5 66.5t121.5 24.5q64 0 121 -25t99 -68t66.5 -100.5t24.5 -121.5q0 -71 -24.5 -131t-66.5 -104t-99 -68.5t-121 -24.5h-950l164 319h475v13zM-1094 2249q0 -22 9 -41.5t24 -34t35 -23t43 -8.5t43 8.5t35 23t24 34t9 41.5
q0 23 -9 43t-24 35t-35 23.5t-43 8.5t-43 -8.5t-35 -23.5t-24 -35t-9 -43z" />
    <glyph glyph-name="saraueeleftthai" 
d="M-1769 2236h294v258h320v-258h131v258h319v-577h-1228z" />
    <glyph glyph-name="saraueeleftthai" unicode="&#xf704;" 
d="M-1769 2236h294v258h320v-258h131v258h319v-577h-1228z" />
    <glyph glyph-name="maieklowleftthai" 
d="M-1180 2478h402v-557h-402v557z" />
    <glyph glyph-name="maieklowleftthai" unicode="&#xf705;" 
d="M-1180 2478h402v-557h-402v557z" />
    <glyph glyph-name="maitholowleftthai" 
d="M-1491 1921v270h-131v271h430v-250q63 0 115 21t89.5 56t58 80t20.5 93h307q0 -105 -39.5 -202.5t-119 -172.5t-199.5 -120.5t-281 -45.5h-250z" />
    <glyph glyph-name="maitholowleftthai" unicode="&#xf706;" 
d="M-1491 1921v270h-131v271h430v-250q63 0 115 21t89.5 56t58 80t20.5 93h307q0 -105 -39.5 -202.5t-119 -172.5t-199.5 -120.5t-281 -45.5h-250z" />
    <glyph glyph-name="maitrilowleftthai" 
d="M-1102 1921v62t-6 68.5t-20.5 55.5t-44.5 23q-20 0 -32.5 -9.5t-19 -26.5t-8.5 -41t-2 -52h-148q0 28 -3 51.5t-10 40.5t-19 27t-30 10q-29 0 -44.5 -21t-22 -52.5t-7.5 -68t-1 -67.5h-233q-8 124 11 216t56 152t89 89.5t110 29.5q53 0 95 -27.5t73 -70.5q40 43 86 70.5
t98 27.5q36 0 69.5 -11t62 -32.5t49.5 -52.5t32 -71q12 18 23.5 43.5t20 55t13.5 62t5 64.5h274q0 -55 -11.5 -114.5t-33 -117t-51.5 -110t-66.5 -95t-78 -71t-86.5 -37.5h-189z" />
    <glyph glyph-name="maitrilowleftthai" unicode="&#xf707;" 
d="M-1102 1921v62t-6 68.5t-20.5 55.5t-44.5 23q-20 0 -32.5 -9.5t-19 -26.5t-8.5 -41t-2 -52h-148q0 28 -3 51.5t-10 40.5t-19 27t-30 10q-29 0 -44.5 -21t-22 -52.5t-7.5 -68t-1 -67.5h-233q-8 124 11 216t56 152t89 89.5t110 29.5q53 0 95 -27.5t73 -70.5q40 43 86 70.5
t98 27.5q36 0 69.5 -11t62 -32.5t49.5 -52.5t32 -71q12 18 23.5 43.5t20 55t13.5 62t5 64.5h274q0 -55 -11.5 -114.5t-33 -117t-51.5 -110t-66.5 -95t-78 -71t-86.5 -37.5h-189z" />
    <glyph glyph-name="maichattawalowleftthai" 
d="M-918 2126v-205h-360v205h-233v278h233v201h360v-201h234v-278h-234z" />
    <glyph glyph-name="maichattawalowleftthai" unicode="&#xf708;" 
d="M-918 2126v-205h-360v205h-233v278h233v201h360v-201h234v-278h-234z" />
    <glyph glyph-name="thanthakhatlowleftthai" 
d="M-680 2204q-75 0 -133 -20.5t-97.5 -58t-60 -89.5t-20.5 -115h-398q0 137 53 243.5t147.5 180.5t224.5 113t284 41v-295z" />
    <glyph glyph-name="thanthakhatlowleftthai" unicode="&#xf709;" 
d="M-680 2204q-75 0 -133 -20.5t-97.5 -58t-60 -89.5t-20.5 -115h-398q0 137 53 243.5t147.5 180.5t224.5 113t284 41v-295z" />
    <glyph glyph-name="maieklowrightthai" 
d="M-557 2478h401v-557h-401v557z" />
    <glyph glyph-name="maieklowrightthai" unicode="&#xf70a;" 
d="M-557 2478h401v-557h-401v557z" />
    <glyph glyph-name="maitholowrightthai" 
d="M-1024 1921v270h-143v271h462v-250q65 0 121 21t97.5 56t65.5 80t24 93h327q0 -105 -42.5 -202.5t-128 -172.5t-214.5 -120.5t-303 -45.5h-266z" />
    <glyph glyph-name="maitholowrightthai" unicode="&#xf70b;" 
d="M-1024 1921v270h-143v271h462v-250q65 0 121 21t97.5 56t65.5 80t24 93h327q0 -105 -42.5 -202.5t-128 -172.5t-214.5 -120.5t-303 -45.5h-266z" />
    <glyph glyph-name="maitrilowrightthai" 
d="M-664 1921q0 31 -1 68t-8.5 69t-23.5 54t-46 22q-26 0 -42 -12t-25 -30.5t-12 -42.5t-3 -48h-177q0 24 -4 48t-13.5 42.5t-25.5 30.5t-39 12q-29 0 -46 -20t-26 -51t-12 -69t-3 -73h-287q-8 123 17.5 214t72 150.5t107.5 89t126 29.5t120.5 -31.5t92.5 -74.5
q41 43 97.5 74.5t128.5 31.5q44 0 85.5 -11t76 -32.5t60.5 -53t40 -71.5q14 19 26.5 44.5t22 55t15 62t5.5 64.5h308q0 -83 -29.5 -172.5t-79.5 -167t-117.5 -132.5t-142.5 -69h-238z" />
    <glyph glyph-name="maitrilowrightthai" unicode="&#xf70c;" 
d="M-664 1921q0 31 -1 68t-8.5 69t-23.5 54t-46 22q-26 0 -42 -12t-25 -30.5t-12 -42.5t-3 -48h-177q0 24 -4 48t-13.5 42.5t-25.5 30.5t-39 12q-29 0 -46 -20t-26 -51t-12 -69t-3 -73h-287q-8 123 17.5 214t72 150.5t107.5 89t126 29.5t120.5 -31.5t92.5 -74.5
q41 43 97.5 74.5t128.5 31.5q44 0 85.5 -11t76 -32.5t60.5 -53t40 -71.5q14 19 26.5 44.5t22 55t15 62t5.5 64.5h308q0 -83 -29.5 -172.5t-79.5 -167t-117.5 -132.5t-142.5 -69h-238z" />
    <glyph glyph-name="maichattawalowrightthai" 
d="M-172 2134v-213h-377v213h-242v291h242v209h377v-209h242v-291h-242z" />
    <glyph glyph-name="maichattawalowrightthai" unicode="&#xf70d;" 
d="M-172 2134v-213h-377v213h-242v291h242v209h377v-209h242v-291h-242z" />
    <glyph glyph-name="thanthakhatlowrightthai" 
d="M-82 2204q-75 0 -133 -20.5t-97.5 -58t-60 -89.5t-20.5 -115h-398q0 137 53 243.5t147.5 180.5t224.5 113t284 41v-295z" />
    <glyph glyph-name="thanthakhatlowrightthai" unicode="&#xf70e;" 
d="M-82 2204q-75 0 -133 -20.5t-97.5 -58t-60 -89.5t-20.5 -115h-398q0 137 53 243.5t147.5 180.5t224.5 113t284 41v-295z" />
    <glyph glyph-name="maihanakatleftthai" 
d="M-1282 1917v463h369v-144h1081v-319h-1450z" />
    <glyph glyph-name="maihanakatleftthai" unicode="&#xf710;" 
d="M-1282 1917v463h369v-144h1081v-319h-1450z" />
    <glyph glyph-name="nikhahitleftthai" 
d="M-1196 2224q0 -24 10.5 -47t28 -41t40.5 -28.5t48 -10.5q26 0 50 10.5t42 28.5t28.5 41t10.5 47q0 26 -10.5 50t-28.5 42t-42 28.5t-50 10.5q-25 0 -48 -10.5t-40.5 -28.5t-28 -42t-10.5 -50zM-1417 2224q0 74 27 138t74.5 111.5t111 75t135.5 27.5q70 0 134 -27.5
t112.5 -75t77 -111.5t28.5 -138q0 -72 -28.5 -135.5t-77 -110.5t-112.5 -74.5t-134 -27.5q-72 0 -135.5 27.5t-111 74.5t-74.5 110.5t-27 135.5z" />
    <glyph glyph-name="nikhahitleftthai" unicode="&#xf711;" 
d="M-1196 2224q0 -24 10.5 -47t28 -41t40.5 -28.5t48 -10.5q26 0 50 10.5t42 28.5t28.5 41t10.5 47q0 26 -10.5 50t-28.5 42t-42 28.5t-50 10.5q-25 0 -48 -10.5t-40.5 -28.5t-28 -42t-10.5 -50zM-1417 2224q0 74 27 138t74.5 111.5t111 75t135.5 27.5q70 0 134 -27.5
t112.5 -75t77 -111.5t28.5 -138q0 -72 -28.5 -135.5t-77 -110.5t-112.5 -74.5t-134 -27.5q-72 0 -135.5 27.5t-111 74.5t-74.5 110.5t-27 135.5z" />
    <glyph glyph-name="maitaikhuleftthai" 
d="M-1511 2343q0 -11 3 -27.5t11 -32.5t23.5 -27t39.5 -11q44 0 64.5 28.5t17.5 93.5h250q-3 -65 17.5 -93.5t60.5 -28.5t51.5 30.5t1.5 91.5h279q14 -114 -5.5 -190.5t-62.5 -123.5t-103.5 -67t-127.5 -20q-39 0 -73.5 10.5t-63.5 28t-52.5 39.5t-40.5 45
q-20 -25 -47.5 -47t-60 -39t-68.5 -27t-73 -10q-68 0 -120.5 18t-92.5 48t-67.5 69t-44.5 81t-24.5 83.5t-7.5 77.5q0 103 37.5 177.5t99.5 123.5t141.5 72.5t164.5 23.5h794v-266h-770q-52 0 -82 -14.5t-45.5 -35.5t-19.5 -43.5t-4 -37.5z" />
    <glyph glyph-name="maitaikhuleftthai" unicode="&#xf712;" 
d="M-1511 2343q0 -11 3 -27.5t11 -32.5t23.5 -27t39.5 -11q44 0 64.5 28.5t17.5 93.5h250q-3 -65 17.5 -93.5t60.5 -28.5t51.5 30.5t1.5 91.5h279q14 -114 -5.5 -190.5t-62.5 -123.5t-103.5 -67t-127.5 -20q-39 0 -73.5 10.5t-63.5 28t-52.5 39.5t-40.5 45
q-20 -25 -47.5 -47t-60 -39t-68.5 -27t-73 -10q-68 0 -120.5 18t-92.5 48t-67.5 69t-44.5 81t-24.5 83.5t-7.5 77.5q0 103 37.5 177.5t99.5 123.5t141.5 72.5t164.5 23.5h794v-266h-770q-52 0 -82 -14.5t-45.5 -35.5t-19.5 -43.5t-4 -37.5z" />
    <glyph glyph-name="maiekupperleftthai" 
d="M-1094 3215h389v-557h-389v557z" />
    <glyph glyph-name="maiekupperleftthai" unicode="&#xf713;" 
d="M-1094 3215h389v-557h-389v557z" />
    <glyph glyph-name="maithoupperleftthai" 
d="M-1270 2658v271h-143v270h463v-250q64 0 121 19.5t99 53.5t66.5 79.5t24.5 97.5h324q0 -105 -42.5 -202.5t-128.5 -172.5t-215 -120.5t-303 -45.5h-266z" />
    <glyph glyph-name="maithoupperleftthai" unicode="&#xf714;" 
d="M-1270 2658v271h-143v270h463v-250q64 0 121 19.5t99 53.5t66.5 79.5t24.5 97.5h324q0 -105 -42.5 -202.5t-128.5 -172.5t-215 -120.5t-303 -45.5h-266z" />
    <glyph glyph-name="maitriupperleftthai" 
d="M-848 2654q0 29 -0.5 67.5t-7 72.5t-21.5 57.5t-44 23.5q-21 0 -34 -13t-20.5 -33.5t-10 -45.5t-2.5 -49h-170q0 21 -2.5 45.5t-10 46t-21.5 35.5t-37 14q-30 0 -45.5 -23t-21.5 -57t-6.5 -72t-0.5 -69h-253q-8 123 13.5 214t62.5 151t96.5 89.5t117.5 29.5
q56 0 104 -27.5t85 -71.5q37 44 85.5 71.5t110.5 27.5q37 0 73 -11.5t66.5 -33t54.5 -52.5t36 -71q14 18 26.5 43.5t22 55t15 62t5.5 64.5h295q0 -83 -28.5 -172.5t-77.5 -167t-113.5 -132.5t-136.5 -69h-205z" />
    <glyph glyph-name="maitriupperleftthai" unicode="&#xf715;" 
d="M-848 2654q0 29 -0.5 67.5t-7 72.5t-21.5 57.5t-44 23.5q-21 0 -34 -13t-20.5 -33.5t-10 -45.5t-2.5 -49h-170q0 21 -2.5 45.5t-10 46t-21.5 35.5t-37 14q-30 0 -45.5 -23t-21.5 -57t-6.5 -72t-0.5 -69h-253q-8 123 13.5 214t62.5 151t96.5 89.5t117.5 29.5
q56 0 104 -27.5t85 -71.5q37 44 85.5 71.5t110.5 27.5q37 0 73 -11.5t66.5 -33t54.5 -52.5t36 -71q14 18 26.5 43.5t22 55t15 62t5.5 64.5h295q0 -83 -28.5 -172.5t-77.5 -167t-113.5 -132.5t-136.5 -69h-205z" />
    <glyph glyph-name="maichattawaupperleftthai" 
d="M-709 2871v-213h-376v213h-242v291h242v209h376v-209h242v-291h-242z" />
    <glyph glyph-name="maichattawaupperleftthai" unicode="&#xf716;" 
d="M-709 2871v-213h-376v213h-242v291h242v209h376v-209h242v-291h-242z" />
    <glyph glyph-name="thanthakhatupperleftthai" 
d="M-406 2753q-75 0 -133 -20.5t-97.5 -58t-60 -89.5t-20.5 -115h-397q0 136 53 243t147.5 180.5t224.5 112.5t283 41v-294z" />
    <glyph glyph-name="thanthakhatupperleftthai" unicode="&#xf717;" 
d="M-406 2753q-75 0 -133 -20.5t-97.5 -58t-60 -89.5t-20.5 -115h-397q0 136 53 243t147.5 180.5t224.5 112.5t283 41v-294z" />
    <glyph glyph-name="uni00A0" unicode="&#xa0;" horiz-adv-x="496" 
 />
    <glyph glyph-name="cent" unicode="&#xa2;" horiz-adv-x="1634" 
d="M725 -4q-147 15 -261 80t-191.5 167.5t-117.5 237t-40 289.5q0 154 41.5 288.5t120.5 240t192 178.5t256 104v270h254v-270q108 -14 199.5 -53.5t162.5 -110.5t119 -175t68 -247h-340q-28 112 -78.5 182.5t-130.5 92.5v-959q45 17 81 48.5t63.5 74.5t46.5 96t30 113h332
q-15 -115 -56.5 -225.5t-109.5 -200t-164.5 -150t-222.5 -75.5v-291h-254v295zM467 770q0 -77 15.5 -150.5t47.5 -136t80.5 -108.5t114.5 -68v959q-69 -25 -118 -74t-80 -114.5t-45.5 -144.5t-14.5 -163z" />
    <glyph glyph-name="sterling" unicode="&#xa3;" horiz-adv-x="1675" 
d="M201 1096q-34 66 -44 144.5t-10 172.5q0 92 26 170.5t72.5 144t111 116t141.5 85t164 52.5t178 18q167 0 300 -44t225 -137t140 -237t47 -344h-389q-18 441 -317 441q-65 0 -120 -22.5t-95 -60.5t-63 -88.5t-23 -105.5q0 -88 21 -162t61 -143h446v-273h-335
q6 -24 11.5 -52t5.5 -53q0 -50 -7.5 -98.5t-21.5 -94t-34 -86t-45 -73.5h58q64 0 125.5 -11t122 -24.5t119 -24.5t116.5 -11q29 0 78 4t105.5 15.5t115 32.5t106.5 55v-338q-64 -32 -121.5 -51t-112.5 -29t-109 -13t-111 -3q-69 0 -147.5 14.5t-158.5 31.5t-159 31.5
t-149 14.5q-51 0 -111 -9t-120 -24t-115 -34.5t-96 -40.5v337q64 9 118 39t93 76t60 106.5t20 129.5q-1 44 -10.5 89.5t-30.5 93.5h-255v273h123z" />
    <glyph glyph-name="yen" unicode="&#xa5;" horiz-adv-x="1899" 
d="M1172 695h484v-278h-484v-417h-438v417h-475v278h475v100l-23 48h-452v273h272l-527 843h520l440 -791l426 791h504l-523 -843h285v-273h-465l-19 -48v-100z" />
    <glyph glyph-name="copyright" unicode="&#xa9;" horiz-adv-x="2216" 
d="M66 987q0 145 38 278.5t106.5 248.5t164 209t211.5 160.5t249 103t275 36.5t274.5 -36.5t248 -103t211 -160.5t163.5 -209t105.5 -248.5t37.5 -278.5q0 -149 -37.5 -284t-105.5 -250t-163.5 -208t-211 -158.5t-248 -100.5t-274.5 -35t-275 35t-249 100.5t-211.5 158.5
t-164 208t-106.5 249.5t-38 284.5zM328 987q0 -175 58 -324.5t162 -258.5t247.5 -170.5t314.5 -61.5q109 0 210 28t187.5 79.5t157.5 125t121.5 164t78 196t27.5 222.5t-27.5 222t-78 194.5t-121.5 162t-157.5 123t-187.5 78t-210 27.5q-114 0 -216 -27.5t-189 -78
t-156.5 -123t-118.5 -162t-75.5 -194.5t-26.5 -222zM1638 860q-23 -117 -70 -205.5t-113 -148.5t-148.5 -90.5t-176.5 -30.5q-131 0 -238 46t-183 127t-118 191t-42 238q0 130 40.5 239.5t115.5 188t180.5 122.5t236.5 44q98 0 183 -28.5t152 -85t113.5 -142t67.5 -199.5
h-249q-9 48 -32 90.5t-56.5 74.5t-78 50.5t-96.5 18.5q-77 0 -135.5 -27.5t-98.5 -77t-60.5 -117t-20.5 -147.5q0 -74 21.5 -142t63 -120t100.5 -83.5t134 -31.5q51 0 94 18t76 50t54.5 77.5t29.5 100.5h254z" />
    <glyph glyph-name="guillemotleft" unicode="&#xab;" horiz-adv-x="1516" 
d="M131 930l545 430v-373l-262 -209l262 -200v-381l-545 434v299zM795 930l544 430v-373l-262 -209l262 -200v-381l-544 434v299z" />
    <glyph glyph-name="registered" unicode="&#xae;" horiz-adv-x="2216" 
d="M66 987q0 145 38 278.5t106.5 248.5t164 209t211.5 160.5t249 103t275 36.5t274.5 -36.5t248 -103t211 -160.5t163.5 -209t105.5 -248.5t37.5 -278.5q0 -149 -37.5 -284t-105.5 -250t-163.5 -208t-211 -158.5t-248 -100.5t-274.5 -35t-275 35t-249 100.5t-211.5 158.5
t-164 208t-106.5 249.5t-38 284.5zM328 987q0 -175 58 -324.5t162 -258.5t247.5 -170.5t314.5 -61.5q109 0 210 28t187.5 79.5t157.5 125t121.5 164t78 196t27.5 222.5t-27.5 222t-78 194.5t-121.5 162t-157.5 123t-187.5 78t-210 27.5q-114 0 -216 -27.5t-189 -78
t-156.5 -123t-118.5 -162t-75.5 -194.5t-26.5 -222zM1214 1549q88 0 154.5 -24.5t111.5 -68.5t67.5 -104.5t22.5 -132.5q0 -56 -16.5 -102.5t-45 -82.5t-67.5 -59.5t-85 -33.5q33 -14 56.5 -33t41 -43.5t30.5 -54.5t25 -64l55 -164q11 -33 22.5 -55.5t22 -38.5t20 -28
t16.5 -24h-271q-9 16 -15.5 31t-13.5 31.5t-14.5 37t-17.5 46.5l-65 169q-19 51 -60.5 84t-91.5 33h-165v-432h-247v1113h530zM1127 1050q89 0 136.5 42.5t45.5 110.5q1 29 -7.5 56.5t-25.5 48.5t-44 34t-64 13h-237v-305h214h-18z" />
    <glyph glyph-name="guillemotright" unicode="&#xbb;" horiz-adv-x="1516" 
d="M721 631l-545 -434v381l262 200l-262 209v373l545 -430v-299zM1384 631l-544 -434v381l262 200l-262 209v373l544 -430v-299z" />
    <glyph glyph-name="onequarter" unicode="&#xbc;" horiz-adv-x="2458" 
d="M1991 1958l-1135 -1958h-291l1135 1958h291zM1933 483v295l-225 -295h225zM2359 483v-237h-155v-246h-271v246h-516v221l574 758h213v-742h155zM152 1737q69 3 128 12.5t105 33.5t77.5 65.5t45.5 109.5h221v-1225h-270v819q-34 -14 -67.5 -23t-70.5 -15.5t-78.5 -10
t-90.5 -4.5v238z" />
    <glyph glyph-name="onehalf" unicode="&#xbd;" horiz-adv-x="2458" 
d="M1483 717q0 109 32 201.5t90.5 159.5t141.5 105t186 38q89 0 169.5 -26.5t141 -76t96.5 -121t36 -161.5q0 -92 -35 -160t-90.5 -120.5t-125 -95t-138.5 -83.5q-47 -28 -95 -60t-98 -75h565v-242h-905q9 127 42 215.5t82.5 151t112.5 106.5t132 84q64 35 114 66.5
t83.5 63.5t51 68t17.5 81q0 32 -12.5 59t-35 45.5t-53 28t-67.5 6.5q-43 -3 -74 -24.5t-51 -56.5t-29.5 -80.5t-9.5 -96.5h-274zM152 1737q69 3 128 12.5t105 33.5t77.5 65.5t45.5 109.5h221v-1225h-270v819q-34 -14 -67.5 -23t-70.5 -15.5t-78.5 -10t-90.5 -4.5v238z
M1909 1958l-1135 -1958h-291l1135 1958h291z" />
    <glyph glyph-name="threequarters" unicode="&#xbe;" horiz-adv-x="2458" 
d="M582 1462q29 0 58 9.5t52.5 27.5t38 43t14.5 55q0 31 -12.5 52.5t-33.5 35.5t-48.5 20.5t-56.5 6.5q-89 0 -128.5 -46.5t-39.5 -129.5h-279q8 97 41.5 175t90.5 133t136 84.5t179 29.5q92 0 170 -23t135 -68.5t89 -113t32 -156.5q0 -58 -30 -113.5t-77 -99.5
q78 -43 119 -117t41 -161q0 -98 -39.5 -172t-105.5 -123t-152 -73.5t-178 -24.5q-91 0 -176.5 22.5t-152 72.5t-106.5 129t-40 193h283q1 -47 13.5 -80t36.5 -53.5t59 -29.5t83 -9q37 0 71.5 10t61.5 28t43.5 44t16.5 58q0 41 -16.5 72.5t-43.5 52.5t-61.5 32t-71.5 11h-70
v196h54zM1933 483v295l-225 -295h225zM2359 483v-237h-155v-246h-271v246h-516v221l574 758h213v-742h155zM2094 1958l-1135 -1958h-291l1135 1958h291z" />
    <glyph glyph-name="multiply" unicode="&#xd7;" horiz-adv-x="1614" 
d="M586 791l-480 512l234 217l463 -496l467 496l233 -217l-479 -512l479 -508l-233 -217l-467 495l-463 -495l-234 217z" />
    <glyph glyph-name="divide" unicode="&#xf7;" horiz-adv-x="1667" 
d="M1561 950v-315h-1455v315h1455zM602 221q0 48 18.5 91t50 75.5t73 52t87.5 19.5q48 0 90.5 -19.5t74.5 -52t50.5 -75.5t18.5 -91q0 -43 -18.5 -83t-50 -70.5t-73 -49t-87.5 -18.5t-88.5 17t-74.5 47t-51.5 70.5t-19.5 86.5zM602 1368q0 48 18.5 90.5t50 74.5t73 50.5
t87.5 18.5q48 0 90.5 -18.5t74.5 -50.5t50.5 -74.5t18.5 -90.5q0 -46 -18.5 -87.5t-50 -73t-73 -50t-87.5 -18.5t-88.5 18.5t-74.5 50t-51.5 73t-19.5 87.5z" />
    <glyph glyph-name="kokaithai" unicode="&#xe01;" horiz-adv-x="1802" 
d="M852 1356q-81 1 -143.5 -14.5t-107 -40.5t-72 -55t-37.5 -58q52 -47 77 -120.5t25 -166.5v-901h-414v905q0 28 -6 57.5t-22 58.5t-44 57t-71 52q17 71 48.5 142t79.5 136t113.5 121t150 97.5t190 65.5t233.5 24q152 0 269.5 -27.5t206 -76t149.5 -116t98.5 -146.5
t54.5 -167t17 -179v-1004h-422v1032q0 58 -18.5 115.5t-62 103.5t-115 74.5t-177.5 30.5z" />
    <glyph glyph-name="khokhaithai" unicode="&#xe02;" horiz-adv-x="1536" 
d="M565 0l-319 1343h-205v336h565l225 -1040l230 1040h434l-397 -1679h-533z" />
    <glyph glyph-name="khokhuatthai" unicode="&#xe03;" horiz-adv-x="1630" 
d="M205 545q0 101 3.5 182t23.5 150t63 129t123 120q20 14 39 30q17 14 36.5 29.5t38.5 31.5q-8 -3 -21 -6.5t-26.5 -5.5t-25.5 -3.5t-17 -1.5q-32 0 -75 6t-88.5 24t-90.5 51t-80 86t-57 129.5t-22 182.5h364q0 -34 5 -65.5t15.5 -56t28 -39.5t41.5 -15q25 0 43 13.5
t29.5 37.5t17 56t5.5 69h368q0 -107 -4 -191t-13.5 -151.5t-25 -121.5t-40 -101t-57.5 -89.5t-77 -86.5q-34 -34 -54 -75.5t-30.5 -87t-14 -92t-3.5 -89.5q0 -63 16 -112t45.5 -82t70 -50.5t89.5 -17.5q46 0 85 13t67.5 41.5t44.5 74.5t16 112v1106h418v-1134
q0 -152 -51.5 -262.5t-138 -182.5t-201 -106.5t-240.5 -34.5q-128 0 -244 37.5t-205 111t-141.5 183.5t-52.5 254z" />
    <glyph glyph-name="khokhwaithai" unicode="&#xe04;" horiz-adv-x="1860" 
d="M569 0h-413v991q0 92 16 181.5t52 170.5t95 149t145.5 118t202.5 78t267 28q149 0 264.5 -28t201 -78t144 -118t94 -149t51 -170.5t15.5 -181.5v-991h-418v1024q0 58 -19.5 117.5t-61.5 107t-109 77.5t-162 30t-164 -30t-113.5 -77.5t-66 -107t-21.5 -117.5v-156
q46 46 97.5 81t111 58.5t129 35.5t150.5 14v-361q-131 -5 -223.5 -39t-151 -95t-86 -146t-27.5 -191v-225z" />
    <glyph glyph-name="khokhonthai" unicode="&#xe05;" horiz-adv-x="1876" 
d="M1303 1085q0 29 -3 62t-10 65t-19 61t-30 50l-217 -139q-85 -61 -176 0l-221 135q-14 -25 -24 -54.5t-17 -61t-10 -62t-3 -56.5v-262q46 46 97.5 81t111 58.5t129 35.5t150.5 14v-361q-131 -5 -223.5 -39t-151 -95t-86 -146t-27.5 -191v-180h-417v1016q0 112 23 221.5
t81.5 203t158 163.5t253.5 104l266 -176l258 172q158 -32 260 -101t160.5 -161.5t81 -202t22.5 -223.5v-1016h-417v1085v0z" />
    <glyph glyph-name="khorakhangthai" unicode="&#xe06;" horiz-adv-x="1815" 
d="M1004 1679v-331q0 -74 -21 -136t-56 -115t-80 -98.5t-93 -85.5q-36 -29 -59.5 -52.5t-37.5 -50.5t-20 -61t-6 -85q0 -65 26 -124.5t74.5 -106t117.5 -74t155 -27.5q52 0 95 17t73.5 48t47.5 74.5t17 97.5v1110h422v-1077q0 -141 -29 -258.5t-100 -202t-189.5 -131.5
t-296.5 -47q-68 0 -130 17t-117 46t-101 66.5t-82 79.5v-172h-405v610q0 66 0.5 117t6.5 93t18.5 77t36 68t60.5 66t91 71q56 40 91 67.5t56 55.5q-24 -6 -46.5 -9.5t-47.5 -3.5q-32 0 -75 6.5t-89 24.5t-90.5 50.5t-80 84.5t-57.5 126t-22 175h373q0 -34 5 -65.5t15.5 -56
t28 -39.5t41.5 -15q25 0 42.5 13.5t29 37.5t17 56t5.5 69h386z" />
    <glyph glyph-name="ngonguthai" unicode="&#xe07;" horiz-adv-x="1364" 
d="M696 356q10 -24 22.5 -34.5t31.5 -10.5q18 0 29.5 13t11.5 28v987h-226v340h643v-1278q0 -117 -36 -200.5t-98.5 -137t-147 -79t-181.5 -25.5q-98 0 -171 23t-126.5 66t-91 104.5t-65.5 138.5l-275 753h435z" />
    <glyph glyph-name="chochanthai" unicode="&#xe08;" horiz-adv-x="1655" 
d="M434 618h-205v345h516l160 -484q17 46 37.5 101t40.5 112.5t38.5 114.5t32.5 107.5t22.5 91.5t8.5 67q0 132 -68.5 207.5t-209.5 75.5q-115 0 -185 -68t-98 -198h-454q24 138 87 253t161 198t229.5 129t292.5 46q79 0 159.5 -12.5t155.5 -41t141 -75t115 -114t77 -158.5
t28 -209q0 -55 -16.5 -131.5t-45 -167t-66.5 -191.5t-81 -205.5t-88.5 -209t-88.5 -201.5h-475z" />
    <glyph glyph-name="chochingthai" unicode="&#xe09;" horiz-adv-x="1802" 
d="M111 1139q15 118 67 223t146 183.5t231.5 124.5t325.5 46q154 0 270 -27.5t201.5 -76.5t142 -116t90.5 -147t48 -169t14 -181v-999h-406v172q-45 -46 -102 -84.5t-121.5 -66t-134 -43t-138.5 -15.5q-173 0 -287.5 47t-182.5 131.5t-95.5 202t-27.5 258.5v336h417v-365
q0 -54 18 -97.5t51.5 -74.5t81 -48t107.5 -17q102 0 176.5 31t124 86t73.5 130t24 162v287q0 57 -16.5 114t-56 103t-105.5 74.5t-166 28.5q-88 0 -150 -17.5t-103 -46.5t-64 -67.5t-32 -81.5h-421z" />
    <glyph glyph-name="chochangthai" unicode="&#xe0a;" horiz-adv-x="1614" 
d="M844 1303q0 -7 -0.5 -11t-3.5 -10q63 12 107.5 40t72 75.5t40.5 117t13 164.5h422q0 -97 -8 -177.5t-31.5 -146.5t-66 -119.5t-111.5 -96.5q60 -37 95.5 -91.5t54.5 -114t24.5 -116.5t5.5 -100v-172q0 -100 -25 -182.5t-69 -148t-104.5 -113.5t-132 -79.5t-151 -47
t-161.5 -15.5q-85 0 -167 16.5t-156 49.5t-136 82.5t-107.5 114.5t-71 146t-25.5 177v131q0 65 4.5 114t14 87.5t24 69.5t34.5 60t45.5 59.5t57.5 68.5q43 52 71 91t31 77q3 27 -13 44t-44 17q-23 0 -49.5 -4t-62 -14t-84 -25.5t-115.5 -38.5v340q57 21 111 36.5t100.5 25.5
t84 15t60.5 5q103 0 185.5 -24t138.5 -73.5t82 -125t16 -178.5zM1040 717q0 73 -23 132t-64 100.5t-99.5 65.5t-128.5 29q-19 -30 -42.5 -62t-51.5 -73q-23 -31 -35 -56t-17.5 -49t-7 -50t-2.5 -58v-127q0 -63 19.5 -113t53 -85t78 -53.5t95.5 -18.5q46 0 87 14.5t71.5 44.5
t48.5 77.5t18 113.5v168z" />
    <glyph glyph-name="sosothai" unicode="&#xe0b;" horiz-adv-x="1655" 
d="M946 1679q0 -123 -8.5 -216.5t-24.5 -168.5q58 12 99.5 39.5t67.5 73.5t38 113t12 159h414q0 -95 -7.5 -173.5t-30.5 -143t-65.5 -117.5t-113.5 -98q63 -35 100.5 -91t57 -117.5t25.5 -121.5t6 -104v-168q0 -101 -25 -184t-70 -148t-106.5 -113t-134 -79.5t-153 -46.5
t-163.5 -15q-126 0 -244.5 37.5t-211 111t-148 183.5t-55.5 254q0 101 3.5 182t23.5 150t63 129t123 120q19 14 37 28q16 12 35 27t38 31q-8 -3 -20.5 -5.5t-25.5 -4t-24 -2t-16 -0.5q-32 0 -75 6t-88.5 24t-90.5 51t-80 86t-57 129.5t-22 182.5h364q0 -34 5 -65.5t15.5 -56
t28 -39.5t41.5 -15q25 0 43 13.5t29.5 37.5t17 56t5.5 69h368zM1094 713q0 67 -20 127.5t-56 107t-87 75.5t-112 34q-18 -31 -41.5 -59.5t-48.5 -59.5q-31 -35 -50.5 -77t-31 -87t-16 -91t-4.5 -89q0 -63 19 -112t51.5 -82t75.5 -50.5t91 -17.5t89.5 13t73 41.5t49.5 74.5
t18 112v140z" />
    <glyph glyph-name="chochoethai" unicode="&#xe0c;" horiz-adv-x="2666" 
d="M1597 745q0 -87 21 -162t61.5 -130t99.5 -86t134 -31q40 0 72.5 12.5t55.5 40t35.5 73t12.5 111.5v1106h422v-1077q0 -152 -24 -271t-83.5 -200.5t-160.5 -124.5t-256 -43q-62 0 -122 18.5t-113.5 48t-97.5 67t-73 75.5v-172h-405v1028q0 57 -17 113.5t-56 101.5
t-103.5 74t-159.5 31q-74 1 -130.5 -12.5t-97 -37t-66.5 -53.5t-38 -61q106 -100 106 -287v-573h172v-324h-589v901q0 28 -6.5 57.5t-22.5 58t-44 55.5t-71 50q17 72 48.5 143.5t79 137t111 122t145 98t182 65.5t221.5 24q144 0 256.5 -27.5t196.5 -76.5t142 -116t94 -147
t52 -169t16 -181v-250z" />
    <glyph glyph-name="yoyingthai" unicode="&#xe0d;" horiz-adv-x="2666" 
d="M2097 266q-71 -62 -161.5 -98.5t-198.5 -36.5q-160 0 -267.5 42t-173 123.5t-93 200.5t-27.5 273v258q0 58 -17 115.5t-56 103.5t-103.5 74.5t-159.5 30.5q-68 1 -123 -13t-97.5 -37.5t-71.5 -52.5t-44 -57q52 -50 81 -126t29 -169v-573h172v-324h-589v901
q0 28 -6.5 57.5t-22.5 58.5t-44 57t-71 52q17 72 48.5 143.5t79 137t111 122t145 98t182 65.5t221.5 24q144 0 256.5 -27.5t196.5 -76.5t142 -116t94 -147t52 -169t16 -181v-258q0 -133 46.5 -205.5t130.5 -72.5q75 0 133.5 37.5t99 100t61.5 144t21 168.5v766h422v-1372
q0 -170 -42 -320t-131 -262t-228 -176.5t-332 -64.5q-123 0 -235.5 35t-202 106t-148.5 180t-74 256h402q7 -57 33.5 -100.5t62.5 -73t77.5 -44.5t80.5 -15q92 0 154 30.5t99.5 79t53.5 108t16 118.5v102z" />
    <glyph glyph-name="dochadathai" unicode="&#xe0e;" horiz-adv-x="1872" 
d="M1716 -586h-385q-21 34 -51.5 67.5t-73.5 60.5t-102 44t-137 17q-69 0 -133 -14.5t-126 -44.5t-123.5 -77.5t-125.5 -113.5v373q45 43 101 79.5t121 63.5t137 42t149 15q108 0 188.5 -23t138.5 -50v1179q0 58 -18.5 115.5t-62 103.5t-114.5 74.5t-177 30.5
q-81 1 -143.5 -14.5t-107.5 -40.5t-72 -55t-38 -58q26 -23 45.5 -49t32 -59.5t19 -77t6.5 -101.5v-901h-574v324h160v581q0 28 -6.5 57.5t-22.5 58.5t-44 57t-71 52q18 71 49.5 142t79.5 136t113.5 121t150 97.5t190 65.5t233.5 24q151 0 269 -27.5t206 -76t149 -116
t99 -146.5t54.5 -167t16.5 -179v-1590z" />
    <glyph glyph-name="topatakthai" unicode="&#xe0f;" horiz-adv-x="1872" 
d="M1716 -598h-409q-5 32 -16 65.5t-28 60.5t-40 44.5t-52 17.5q-27 0 -48 -17.5t-34.5 -44.5t-20.5 -60.5t-7 -65.5h-316q0 31 -9 64.5t-25.5 62t-40 47t-52.5 18.5q-32 0 -56 -18.5t-39.5 -47t-23 -62t-7.5 -64.5h-373q0 132 36.5 227t98.5 156.5t144.5 91t174.5 29.5
q48 0 90.5 -11t80 -29.5t69 -44t55.5 -54.5q22 27 50.5 51t62 42t70.5 28t75 10q56 0 98 -18.5t70 -43.5v1196q0 58 -18.5 115.5t-62 103.5t-114.5 74.5t-177 30.5q-81 1 -143.5 -14.5t-107.5 -40.5t-72 -55t-38 -58q26 -23 45.5 -49t32 -59.5t19 -77t6.5 -101.5v-901h-574
v324h160v581q0 28 -6.5 57.5t-22.5 58.5t-44 57t-71 52q18 71 49.5 142t79.5 136t113.5 121t150 97.5t190 65.5t233.5 24q151 0 269 -27.5t206 -76t149 -116t99 -146.5t54.5 -167t16.5 -179v-1602z" />
    <glyph glyph-name="thothanthai" unicode="&#xe10;" horiz-adv-x="1647" 
d="M627 -647q0 40 -7 73t-20 57t-32 37t-44 13q-26 0 -45.5 -14t-33 -38t-20.5 -57t-7 -71h-271q0 98 17 169.5t45.5 121.5t65.5 81t76.5 47.5t79 22t73.5 4.5q62 -3 116 -29t85 -69q12 18 30 36t39.5 31.5t45.5 22t48 8.5q23 0 45.5 -8.5t42.5 -21.5t36.5 -29t27.5 -31v156
h360v-512h-331q0 40 -7 73t-20.5 57t-33.5 37t-46 13t-47 -14.5t-35 -39t-21.5 -57t-7.5 -69.5h-204zM434 618h-205v345h516l160 -484q17 46 37.5 101t40.5 112.5t38.5 114.5t32.5 107.5t22.5 91.5t8.5 67q0 132 -68.5 207.5t-209.5 75.5q-115 0 -185 -68t-98 -198h-454
q24 138 87 253t161 198t229.5 129t292.5 46q65 0 131 -9t131 -28q21 8 38.5 25t30.5 38.5t20 47t9 49.5h438q-2 -54 -14.5 -112t-37.5 -112t-63.5 -99.5t-92.5 -73.5q40 -65 63 -148t23 -188q0 -55 -16.5 -131.5t-45 -167t-66.5 -191.5t-81 -205.5t-88.5 -209t-88.5 -201.5
h-475z" />
    <glyph glyph-name="thonangmonthothai" unicode="&#xe11;" horiz-adv-x="1815" 
d="M969 1679v-148q55 42 108.5 77t103 59.5t94.5 38.5t85 14q94 0 152.5 -28t91 -80t44 -125t11.5 -164v-1323h-422v1219v37t-2 34.5t-8.5 25t-18.5 9.5q-17 0 -50 -20.5t-77.5 -57t-98 -86.5t-110.5 -108q-68 -71 -114.5 -125.5t-75.5 -106t-42 -106.5t-13 -125v-590h-418
v561q0 63 2 111.5t8.5 87.5t19 72t33.5 67t51.5 72t73.5 86q53 59 92 99.5t64 68.5q-19 -10 -42 -15.5t-36 -5.5q-32 0 -75 7t-89 25.5t-90.5 51.5t-80 86t-57.5 128t-22 177h373q0 -34 5 -65.5t15.5 -56t28 -39.5t41.5 -15q25 0 42.5 13.5t29 37.5t17 56t5.5 69h351z" />
    <glyph glyph-name="thophuthaothai" unicode="&#xe12;" horiz-adv-x="2839" 
d="M1769 745q0 -89 21 -164t61.5 -129.5t99.5 -85t134 -30.5q41 0 74 12.5t55.5 40t34.5 73t12 111.5v1106h422v-1077q0 -152 -24 -271t-85 -200.5t-166 -124.5t-266 -43q-57 0 -113 17t-107 46t-94.5 66.5t-74.5 79.5v-172h-401v1053q0 68 -28.5 132t-90.5 113l-176 -106
q-40 -22 -85.5 -25t-94.5 25l-181 111q-65 -50 -94 -116t-29 -134v-521l222 226h-115v258h553v-250l-725 -766h-352v1020q0 115 28.5 226t94 205t171 163.5t259.5 101.5l258 -172l262 168q149 -34 252 -103t167 -161.5t92.5 -202.5t28.5 -225v-275z" />
    <glyph glyph-name="nonenthai" unicode="&#xe13;" horiz-adv-x="2666" 
d="M2511 0h-406v172q-32 -43 -74 -81t-90.5 -66.5t-103.5 -45t-113 -16.5q-160 0 -265.5 43t-168.5 124.5t-88.5 200.5t-25.5 271v430q0 57 -17 113.5t-56 102t-103.5 74t-159.5 30.5q-68 1 -123 -13t-97.5 -37.5t-71.5 -52.5t-44 -57q52 -50 81 -124t29 -167v-577h172v-324
h-589v905q0 28 -6.5 57.5t-22.5 58t-44 55.5t-71 50q17 72 48.5 143.5t79 137t111 122t145 98t182 65.5t221.5 24q144 0 256.5 -27.5t196.5 -76.5t142 -116t94 -147t52 -169t16 -181v-426q0 -66 12 -111.5t35 -73t55.5 -40t74.5 -12.5q75 0 133.5 31t99 86t61.5 130t21 162
v934h422v-1679z" />
    <glyph glyph-name="dodekthai" unicode="&#xe14;" horiz-adv-x="1925" 
d="M807 758h-119v258h553v-250l-733 -766h-352v995q0 92 17.5 181.5t57 169.5t102 148t152.5 117t209.5 77t272.5 28q150 0 268 -28t207.5 -77t151.5 -117t101 -148t56.5 -169.5t17.5 -181.5v-995h-417v1028q0 58 -21 117t-67 105.5t-119.5 76t-177.5 29.5
q-106 0 -181 -29.5t-122 -76t-69 -105.5t-22 -117v-500z" />
    <glyph glyph-name="totaothai" unicode="&#xe15;" horiz-adv-x="1925" 
d="M573 1053v-525l234 230h-119v258h553v-250l-733 -766h-352v1020q0 115 28.5 226t94 205t171 163.5t259.5 101.5l258 -172l262 168q149 -34 252 -103t167 -161.5t92.5 -202.5t28.5 -225v-1020h-417v1053q0 68 -28.5 132t-90.5 113l-176 -106q-40 -22 -85.5 -25t-94.5 25
l-181 111q-65 -50 -94 -116t-29 -134z" />
    <glyph glyph-name="thothungthai" unicode="&#xe16;" horiz-adv-x="1802" 
d="M766 324v-324h-586v905q0 28 -6 57.5t-22 58.5t-44 57t-71 52q17 71 48.5 142t79.5 136t113.5 121t150 97.5t190 65.5t233.5 24q152 0 269.5 -27.5t206 -76t149.5 -116t98.5 -146.5t54.5 -167t17 -179v-1004h-422v1032q0 58 -18.5 115.5t-62 103.5t-115 74.5t-177.5 30.5
q-81 1 -143.5 -14.5t-107 -40.5t-72 -55t-37.5 -58q52 -47 77 -120.5t25 -166.5v-577h172z" />
    <glyph glyph-name="thothahanthai" unicode="&#xe17;" horiz-adv-x="1802" 
d="M557 1679v-176q48 51 96.5 90.5t103.5 66.5t118.5 41.5t140.5 14.5q183 0 304 -47t194 -131.5t103 -202t30 -258.5v-1077h-414v1106q0 54 -18 97.5t-51 74.5t-81 48t-108 17q-101 0 -176.5 -30.5t-125.5 -85t-75 -129.5t-25 -164v-934h-417v1679h401z" />
    <glyph glyph-name="thothongthai" unicode="&#xe18;" horiz-adv-x="1712" 
d="M1111 1123q-6 69 -34 116.5t-72.5 77t-103 43t-124.5 13.5q-43 0 -80.5 -7.5t-66 -21t-45 -33t-16.5 -43.5q0 -19 21 -36t54 -32.5t74 -29t81.5 -25t76 -20.5t58.5 -15q107 -30 196.5 -58.5t160.5 -63t124 -77t88 -99.5t52.5 -131.5t17.5 -172.5q0 -97 -27.5 -175
t-76.5 -138t-116 -103t-147 -71t-169 -41t-181 -13q-141 0 -269 30.5t-224.5 95.5t-153.5 168t-57 247v332h417v-332q0 -51 26 -86.5t67 -58.5t92 -33.5t102 -10.5q46 0 97.5 8.5t94.5 30.5t71 58t28 92q0 34 -4 61.5t-17 52t-39 46t-69.5 43t-108 44t-155.5 48.5
q-126 32 -236 72t-191 95t-128 130t-47 178q2 81 29.5 144.5t75 112t110.5 82t135.5 55t152 31t158.5 9.5q150 0 279.5 -31t225.5 -101t152 -182.5t59 -274.5h-418z" />
    <glyph glyph-name="nonuthai" unicode="&#xe19;" horiz-adv-x="1802" 
d="M1245 0v217q-93 -130 -219 -192t-281 -62q-160 0 -272 54.5t-182.5 148t-102.5 219t-32 266.5v1028h413v-991q0 -77 19 -140.5t60 -108.5t104.5 -70t152.5 -25q58 0 116 20.5t104.5 68t75 124t28.5 188.5v934h418v-1679h-402z" />
    <glyph glyph-name="bobaimaithai" unicode="&#xe1a;" horiz-adv-x="1802" 
d="M901 324q94 0 157 30t101 78t54 107.5t16 119.5v1020h418v-991q0 -92 -13.5 -181.5t-47 -170.5t-88.5 -149t-138 -118t-196.5 -78t-262.5 -28q-150 0 -264 28t-196.5 78t-137.5 118t-87.5 149t-46 170.5t-13.5 181.5v991h413v-1020q0 -60 16 -119.5t54.5 -107.5
t102.5 -78t159 -30z" />
    <glyph glyph-name="poplathai" unicode="&#xe1b;" horiz-adv-x="1802" 
d="M901 324q94 0 157 30t101 78t54 107.5t16 119.5v1754h418v-1725q0 -92 -13.5 -181.5t-47 -170.5t-88.5 -149t-138 -118t-196.5 -78t-262.5 -28q-150 0 -264 28t-196.5 78t-137.5 118t-87.5 149t-46 170.5t-13.5 181.5v991h413v-1020q0 -60 16 -119.5t54.5 -107.5
t102.5 -78t159 -30z" />
    <glyph glyph-name="phophungthai" unicode="&#xe1c;" horiz-adv-x="1929" 
d="M156 1679h630v-344h-213v-778q0 -121 25.5 -177t69.5 -56q34 0 54 23t30.5 63.5t14 95t3.5 117.5v290h389v-290q0 -63 4 -117.5t16.5 -95t35 -63.5t59.5 -23t59.5 56t22.5 177v1122h418v-1187q0 -135 -32.5 -235t-92.5 -165t-145 -97t-189 -32q-112 0 -201.5 36.5
t-150.5 111.5q-56 -69 -141 -108.5t-199 -39.5q-106 0 -192.5 32t-147.5 97t-94 165t-33 235v1187z" />
    <glyph glyph-name="fofathai" unicode="&#xe1d;" horiz-adv-x="1929" 
d="M156 1679h630v-344h-213v-778q0 -121 25.5 -177t69.5 -56q34 0 54 23t30.5 63.5t14 95t3.5 117.5v290h389v-290q0 -63 4 -117.5t16.5 -95t35 -63.5t59.5 -23t59.5 56t22.5 177v1856h418v-1921q0 -135 -32.5 -235t-92.5 -165t-145 -97t-189 -32q-112 0 -201.5 36.5
t-150.5 111.5q-56 -69 -141 -108.5t-199 -39.5q-106 0 -192.5 32t-147.5 97t-94 165t-33 235v1187z" />
    <glyph glyph-name="phophanthai" unicode="&#xe1e;" horiz-adv-x="2249" 
d="M1278 1679l274 -942l205 942h451l-447 -1679h-356l-283 958l-278 -958h-357l-446 1679h451l204 -950l275 950h307z" />
    <glyph glyph-name="fofanthai" unicode="&#xe1f;" horiz-adv-x="2249" 
d="M1278 1679l274 -942l394 1676h450l-635 -2413h-356l-283 958l-278 -958h-357l-446 1679h451l204 -950l275 950h307z" />
    <glyph glyph-name="phosamphaothai" unicode="&#xe20;" horiz-adv-x="1872" 
d="M1716 0h-422v1032q0 58 -18.5 115.5t-62 103.5t-114.5 74.5t-177 30.5q-81 1 -143.5 -14.5t-107.5 -40.5t-72 -55t-38 -58q26 -23 45.5 -49t32 -59.5t19 -77t6.5 -101.5v-901h-574v324h160v581q0 28 -6.5 57.5t-22.5 58.5t-44 57t-71 52q18 71 49.5 142t79.5 136
t113.5 121t150 97.5t190 65.5t233.5 24q151 0 269 -27.5t206 -76t149 -116t99 -146.5t54.5 -167t16.5 -179v-1004z" />
    <glyph glyph-name="momathai" unicode="&#xe21;" horiz-adv-x="1802" 
d="M156 0v1679h417v-934q0 -112 28.5 -188.5t75 -124t104 -68t116.5 -20.5q89 0 153 25t104.5 70t59.5 108.5t19 140.5v991h414v-1028q0 -141 -32.5 -266.5t-103 -219t-182.5 -148t-272 -54.5q-155 0 -281 62t-219 192v-217h-401z" />
    <glyph glyph-name="yoyakthai" unicode="&#xe22;" horiz-adv-x="1757" 
d="M127 1241q0 87 23 153.5t61.5 115t89.5 81t107.5 52t115 28t111.5 8.5h291v-348h-238q-38 0 -66 -9t-46 -24.5t-26.5 -35.5t-8.5 -41q0 -31 10.5 -58t31.5 -48t51.5 -34t70.5 -16h221v-315h-205q-34 -2 -65 -9.5t-55 -28t-38 -58.5t-14 -101q0 -59 27.5 -104.5t73 -77
t103.5 -48t119 -16.5q68 0 126 20t100 62t66 108t24 158v1024h414v-1077q0 -158 -57.5 -278.5t-156.5 -201.5t-232 -122t-284 -41q-93 0 -184.5 15t-174 46.5t-153.5 79t-122.5 112t-81 146.5t-29.5 183q0 123 39.5 217.5t128.5 146.5q-42 34 -73.5 74.5t-52.5 84t-31.5 89
t-10.5 88.5z" />
    <glyph glyph-name="roruathai" unicode="&#xe23;" horiz-adv-x="1524" 
d="M470 568q6 -68 30 -121.5t62.5 -90.5t89 -57t110.5 -20q44 0 90.5 9t85 32t63.5 62.5t25 99.5q0 51 -26 86t-79 61.5t-133 49t-189 48.5q-88 21 -172 53.5t-150 84.5t-106.5 128t-40.5 186q0 106 25 187t69 140t104 98.5t130 63.5t147 34t156 10q121 0 229 -27.5
t192 -91.5t137.5 -167.5t64.5 -255.5h-382q-9 112 -75.5 169t-173.5 57q-35 0 -73 -7.5t-69.5 -25t-52.5 -47t-21 -73.5q0 -62 37.5 -97t99.5 -56.5t142.5 -37t166.5 -37.5q90 -24 171 -57.5t143 -87.5t98.5 -133t36.5 -194q0 -109 -26.5 -195t-73 -150t-110.5 -109
t-139 -73t-158 -40.5t-168 -12.5q-127 0 -245.5 36.5t-211.5 111t-151 188.5t-64 269h385z" />
    <glyph glyph-name="ruthai" unicode="&#xe24;" horiz-adv-x="1801" 
d="M766 324v-324h-586v905q0 28 -6 57.5t-22 58.5t-44 57t-71 52q17 71 48.5 142t79.5 136t113.5 121t150 97.5t190 65.5t233.5 24q152 0 269.5 -27.5t206 -76t149.5 -116t98.5 -146.5t54.5 -167t17 -179v-1549h-422v1577q0 58 -18.5 115.5t-62 103.5t-115 74.5t-177.5 30.5
q-81 1 -143.5 -14.5t-107 -40.5t-72 -55t-37.5 -58q52 -47 77 -120.5t25 -166.5v-577h172z" />
    <glyph glyph-name="lolingthai" unicode="&#xe25;" horiz-adv-x="1761" 
d="M1192 703q-21 1 -42.5 1.5t-42.5 0.5q-73 0 -144 -4t-136 -14t-120.5 -26t-96 -41.5t-63.5 -61t-23 -82.5q0 -52 23 -86t59.5 -54.5t81.5 -28.5t90 -8q44 0 103.5 9t130.5 28v-320q-84 -24 -156 -36.5t-143 -12.5q-123 0 -233 27.5t-193.5 86t-132 148.5t-48.5 216
q0 112 38 198.5t106.5 151t163 108.5t207 70.5t238.5 37t258 8.5q19 0 37.5 -0.5t37.5 -1.5v143q0 65 -26.5 108.5t-68 69.5t-91.5 37t-97 11q-64 0 -120 -18t-99 -56t-69.5 -97.5t-30.5 -141.5h-426q4 124 34 220t81.5 167.5t121.5 120t153.5 79t178.5 43.5t197 13
q80 0 161 -11t156 -36.5t140.5 -68.5t114 -106t76.5 -148.5t28 -197.5v-1148h-414v703z" />
    <glyph glyph-name="luthai" unicode="&#xe26;" horiz-adv-x="1872" 
d="M1716 -545h-422v1577q0 58 -18.5 115.5t-62 103.5t-114.5 74.5t-177 30.5q-81 1 -143.5 -14.5t-107.5 -40.5t-72 -55t-38 -58q26 -23 45.5 -49t32 -59.5t19 -77t6.5 -101.5v-901h-574v324h160v581q0 28 -6.5 57.5t-22.5 58.5t-44 57t-71 52q18 71 49.5 142t79.5 136
t113.5 121t150 97.5t190 65.5t233.5 24q151 0 269 -27.5t206 -76t149 -116t99 -146.5t54.5 -167t16.5 -179v-1549z" />
    <glyph glyph-name="wowaenthai" unicode="&#xe27;" horiz-adv-x="1606" 
d="M1073 840q0 133 -20 231t-58 162.5t-93 95.5t-124 31q-48 0 -90 -19.5t-75.5 -57.5t-56.5 -96t-32 -134h-430q12 146 66 268.5t142.5 211t209 138t266.5 49.5q187 0 324.5 -63.5t227.5 -179t133.5 -277.5t43.5 -360t-43.5 -360t-133.5 -277t-227.5 -177.5t-324.5 -62.5
q-146 0 -266.5 49t-209 137.5t-142.5 211.5t-66 270h430q9 -78 32 -136t56.5 -96t75.5 -56.5t90 -18.5q69 0 124 30.5t93 93.5t58 160.5t20 231.5z" />
    <glyph glyph-name="sosalathai" unicode="&#xe28;" horiz-adv-x="1860" 
d="M569 0h-413v991q0 92 15.5 181.5t51.5 170.5t94.5 149t144.5 118t201.5 78t266.5 28q99 0 184 -14t156 -39q24 12 42.5 33.5t31 46.5t18.5 52.5t6 51.5h422q0 -57 -15.5 -113t-45 -107t-71 -93.5t-93.5 -71.5q76 -98 107.5 -220t31.5 -251v-991h-418v1024q0 58 -20 117.5
t-63 107t-110.5 77.5t-162.5 30t-163.5 -30t-112.5 -77.5t-64.5 -107t-20.5 -117.5v-156q46 46 97.5 81t111 58.5t129 35.5t150.5 14v-361q-131 -5 -223.5 -39t-151 -95t-86 -146t-27.5 -191v-225z" />
    <glyph glyph-name="sorusithai" unicode="&#xe29;" horiz-adv-x="1868" 
d="M774 758v438h365v-127h147v610h422v-610h147v-311h-147v-70q0 -92 -15 -181.5t-50 -170.5t-93 -149t-144 -118t-203 -78t-269 -28q-156 0 -274 28t-204.5 78t-144 118t-92 149t-49 170.5t-14.5 181.5v991h417v-1020q0 -60 17.5 -119.5t59.5 -107.5t111.5 -78t172.5 -30
t170.5 30t108 78t57 107.5t16.5 119.5v99h-512z" />
    <glyph glyph-name="sosuathai" unicode="&#xe2a;" horiz-adv-x="1761" 
d="M1192 703q-21 1 -42.5 1.5t-42.5 0.5q-73 0 -144 -4t-136 -14t-120.5 -26t-96 -41.5t-63.5 -61t-23 -82.5q0 -52 23 -86t59.5 -54.5t81.5 -28.5t90 -8q44 0 103.5 9t130.5 28v-320q-84 -24 -156 -36.5t-143 -12.5q-123 0 -233 27.5t-193.5 86t-132 148.5t-48.5 216
q0 112 38 198.5t106.5 151t163 108.5t207 70.5t238.5 37t258 8.5q19 0 37.5 -0.5t37.5 -1.5v143q0 65 -26.5 108.5t-68 69.5t-91.5 37t-97 11q-64 0 -120 -18t-99 -56t-69.5 -97.5t-30.5 -141.5h-426q4 124 34 220t81.5 167.5t121.5 120t153.5 79t178.5 43.5t197 13
q77 0 154.5 -10t150.5 -34q23 15 40 36t28.5 45t17.5 48.5t6 45.5h422q0 -55 -15 -111t-44 -107t-71 -94t-96 -71q39 -61 61 -138.5t22 -177.5v-1148h-414v703z" />
    <glyph glyph-name="hohipthai" unicode="&#xe2b;" horiz-adv-x="1765" 
d="M573 1679v-466l532 466h572l-353 -308q75 -30 130.5 -74t92 -104.5t54 -139t17.5 -177.5v-876h-418v855q0 111 -37 176.5t-113 99.5l-477 -417v-714h-417v1679h417z" />
    <glyph glyph-name="lochulathai" unicode="&#xe2c;" horiz-adv-x="2195" 
d="M1729 0h-316l-311 848l-299 -848h-324l-438 1679h459l184 -1007l274 745h291l287 -770l102 459q14 67 18.5 118t-11.5 85.5t-59 53t-124 21.5v304q77 1 140 15t109.5 42.5t75 73.5t36.5 110h467q-12 -89 -46.5 -159t-80.5 -123.5t-97.5 -90t-99.5 -57.5
q29 -40 52.5 -86.5t37.5 -96t16 -100t-12 -98.5z" />
    <glyph glyph-name="oangthai" unicode="&#xe2d;" horiz-adv-x="1737" 
d="M868 1352q-61 0 -115.5 -18t-98.5 -51t-75.5 -80t-46.5 -105h-442q34 138 98.5 252.5t161.5 196.5t226 127.5t292 45.5q215 0 364.5 -68t242.5 -187t134.5 -280.5t41.5 -348.5q0 -117 -18.5 -227t-58.5 -207t-102 -177.5t-148.5 -139t-199 -90.5t-252.5 -32
q-142 0 -255 32t-199 89.5t-146.5 138t-99 177.5t-56.5 207.5t-18 228.5v118h774v-340h-335q17 -65 48 -118t74 -91.5t96.5 -59.5t116.5 -21q83 0 148.5 34.5t111 100t69.5 160.5t24 217q0 251 -88 383.5t-269 132.5z" />
    <glyph glyph-name="honokhukthai" unicode="&#xe2e;" horiz-adv-x="1737" 
d="M868 1352q-61 0 -115.5 -18t-98.5 -51t-75.5 -80t-46.5 -105h-442q34 138 98.5 252.5t161.5 196.5t226 127.5t292 45.5q93 0 174.5 -14t149.5 -39q24 12 42 33.5t29.5 46t17 51t5.5 49.5h422q0 -57 -15.5 -113.5t-45 -107.5t-72 -93.5t-96.5 -70.5q89 -120 130.5 -280.5
t41.5 -345.5q0 -117 -18.5 -227t-58.5 -207t-102 -177.5t-148.5 -139t-199 -90.5t-252.5 -32q-142 0 -255 32t-199 89.5t-146.5 138t-99 177.5t-56.5 207.5t-18 228.5v118h774v-340h-335q17 -65 48 -118t74 -91.5t96.5 -59.5t116.5 -21q83 0 148.5 34.5t111 100t69.5 160.5
t24 217q0 251 -88 383.5t-269 132.5z" />
    <glyph glyph-name="paiyannoithai" unicode="&#xe2f;" horiz-adv-x="1810" 
d="M1241 0v692q-77 -40 -171.5 -63t-197.5 -23q-177 0 -310 40.5t-222.5 115t-134.5 180t-45 234.5q0 95 25 169t68 130t100.5 95t123 63t135.5 35t138 11h303v-344h-303q-84 0 -124 -44.5t-40 -119.5q0 -37 13 -74t44.5 -67t84 -48.5t132.5 -18.5q184 0 282.5 63.5
t98.5 202.5v450h414v-1679h-414z" />
    <glyph glyph-name="saraathai" unicode="&#xe30;" horiz-adv-x="1044" 
d="M160 1073v426h344v-123h409v-303h-753zM160 242v422h344v-123h409v-299h-753z" />
    <glyph glyph-name="maihanakatthai" unicode="&#xe31;" 
d="M-1102 1917v463h369v-144h799v-319h-1168z" />
    <glyph glyph-name="saraaathai" unicode="&#xe32;" horiz-adv-x="1470" 
d="M37 1090q0 152 55 268.5t145.5 196t207 120.5t239.5 41q133 0 248.5 -35t200.5 -106.5t133.5 -181t48.5 -258.5v-1135h-418v1081q0 145 -54.5 210t-158.5 65q-93 0 -150.5 -66.5t-66.5 -199.5h-430z" />
    <glyph glyph-name="saraamthai" unicode="&#xe33;" horiz-adv-x="1470" 
d="M467 1090q9 133 66.5 199.5t150.5 66.5q104 0 158.5 -65t54.5 -210v-1081h418v1135q0 149 -48.5 258.5t-133.5 181t-200.5 106.5t-248.5 35q-123 0 -239.5 -41t-207 -120.5t-145.5 -196t-55 -268.5h430zM-504 2224q0 -24 10.5 -47t28.5 -41t41 -28.5t47 -10.5
q26 0 50 10.5t42 28.5t28.5 41t10.5 47q0 26 -10.5 50t-28.5 42t-42 28.5t-50 10.5q-24 0 -47 -10.5t-41 -28.5t-28.5 -42t-10.5 -50zM-725 2224q0 74 27.5 138t74.5 111.5t110.5 75t135.5 27.5q71 0 135 -27.5t112 -75t76.5 -111.5t28.5 -138q0 -72 -28.5 -135.5
t-76.5 -110.5t-112 -74.5t-135 -27.5q-72 0 -135.5 27.5t-110.5 74.5t-74.5 110.5t-27.5 135.5z" />
    <glyph glyph-name="saraithai" unicode="&#xe34;" 
d="M-1683 1917l163 319h1360v-319h-1523z" />
    <glyph glyph-name="saraiithai" unicode="&#xe35;" 
d="M-1520 2236h963v258h397v-577h-1523z" />
    <glyph glyph-name="sarauethai" unicode="&#xe36;" 
d="M-741 2249q0 64 24.5 121t66.5 99t98.5 66.5t121.5 24.5q64 0 121 -25t99 -68t66.5 -100.5t24.5 -121.5q0 -71 -24.5 -131t-66.5 -104t-99 -68.5t-121 -24.5h-1253l163 319h779v13zM-541 2249q0 -22 8.5 -41.5t23.5 -34t35.5 -23t43.5 -8.5t43 8.5t35 23t24 34t9 41.5
q0 23 -9 43t-24 35t-35 23.5t-43 8.5t-43.5 -8.5t-35.5 -23.5t-23.5 -35t-8.5 -43z" />
    <glyph glyph-name="saraueethai" unicode="&#xe37;" 
d="M-1520 2236h574v258h328v-258h131v258h327v-577h-1523z" />
    <glyph glyph-name="sarauthai" unicode="&#xe38;" 
d="M-537 -922v422h-188v299h569v-721h-381z" />
    <glyph glyph-name="sarauuthai" unicode="&#xe39;" 
d="M-1282 -201h532v-262q0 -65 25.5 -98t81.5 -33q106 0 106 131v262h381v-262q0 -94 -25.5 -177.5t-83 -146t-150.5 -99t-228 -36.5q-122 0 -210 29.5t-147.5 82t-91 125.5t-38.5 161h-152v323z" />
    <glyph glyph-name="phinthuthai" unicode="&#xe3a;" 
d="M-623 -389q0 54 21 101.5t56.5 83t83.5 56.5t102 21q52 0 99 -21t82 -56.5t56 -83t21 -101.5q0 -52 -21 -99t-56 -82t-82 -56t-99 -21q-54 0 -102 21t-83.5 56t-56.5 82t-21 99z" />
    <glyph glyph-name="PUCR2005" unicode="&#xe3e;" 
 />
    <glyph glyph-name="bahtthai" unicode="&#xe3f;" horiz-adv-x="1946" 
d="M852 1959v248h254v-252q52 -2 105 -6.5t102.5 -13.5t94 -23t79.5 -33q54 -32 103.5 -75t87.5 -98t60.5 -121t22.5 -144q0 -66 -16 -124.5t-45 -108t-68.5 -90t-87.5 -70.5q67 -32 123 -78.5t96 -104.5t62 -125.5t22 -141.5t-20 -147.5t-59.5 -139.5t-98 -123t-135 -99
t-170.5 -65.5t-205 -23.5h-53v-289h-254v289h-668v1959h668zM1413 606q0 60 -26 103.5t-69 72.5t-98.5 44.5t-113.5 20.5v-506h16q71 0 125.5 20t91 55.5t55.5 84t19 105.5zM852 341v506h-234v-506h234zM852 1160v458h-234v-458h234zM1331 1393q0 56 -17.5 94.5t-47.5 63.5
t-71 38.5t-89 19.5v-441q120 19 172.5 78.5t52.5 146.5z" />
    <glyph glyph-name="saraethai" unicode="&#xe40;" horiz-adv-x="766" 
d="M172 0v1679h422v-1679h-422z" />
    <glyph glyph-name="saraaethai" unicode="&#xe41;" horiz-adv-x="1384" 
d="M156 0v1679h422v-1679h-422zM807 0v1679h422v-1679h-422z" />
    <glyph glyph-name="saraothai" unicode="&#xe42;" horiz-adv-x="852" 
d="M201 1970q0 46 -18 87t-50 71.5t-77.5 48.5t-100.5 18l82 299h876l144 -331h-537q22 -18 40 -45.5t31 -59.5t20 -66.5t7 -66.5v-1601h168v-324h-585v1970z" />
    <glyph glyph-name="saraaimaimuanthai" unicode="&#xe43;" horiz-adv-x="852" 
d="M618 328h173v-328h-586v1671q0 54 15 102t39 90.5t53 80t57 71.5q40 47 67 87t27 77q0 9 -3 22t-12 24.5t-25 19.5t-42 8q-38 0 -70.5 -20t-56 -54.5t-36.5 -81t-13 -98.5h-344q0 144 45 250.5t119 176.5t169 104t195 34q89 0 172.5 -20.5t148 -65t103.5 -114.5t39 -169
q0 -34 -8.5 -64t-22.5 -58t-32.5 -54.5t-38.5 -52.5q-23 -31 -46 -62.5t-41.5 -66.5t-30.5 -76t-14 -90v-1343z" />
    <glyph glyph-name="saraaimaimalaithai" unicode="&#xe44;" horiz-adv-x="852" 
d="M-238 2163l144 331h876l82 -299q-55 0 -100.5 -18t-77.5 -48.5t-50 -71.5t-18 -87v-1630h168v-340h-585v1925q0 32 7.5 66.5t20.5 66.5t31 59.5t39 45.5h-537z" />
    <glyph glyph-name="lakkhangyaothai" unicode="&#xe45;" horiz-adv-x="1470" 
d="M37 1090q0 152 55 268.5t145.5 196t207 120.5t239.5 41q133 0 248.5 -35t200.5 -106.5t133.5 -181t48.5 -258.5v-1680h-418v1626q0 145 -54.5 210t-158.5 65q-93 0 -150.5 -66.5t-66.5 -199.5h-430z" />
    <glyph glyph-name="maiyamokthai" unicode="&#xe46;" horiz-adv-x="1712" 
d="M557 1061q1 -25 6.5 -53.5t18.5 -53t34.5 -41t55.5 -16.5h114v-336h-114q-54 0 -112.5 11.5t-115.5 35.5t-109 61t-93 88t-68.5 116.5t-34.5 146.5q-11 123 11 234t87 200t178 151t285 87l156 -152l135 148q126 -10 216.5 -42t153 -80t100 -110.5t58 -135t27 -151.5
t6.5 -161v-1549h-422v1581v74t-3 82.5t-11.5 74t-25.5 48.5l-148 -139q-15 -16 -36.5 -28.5t-49.5 -12.5q-31 0 -53 12.5t-37 28.5l-148 139q-18 -17 -30.5 -46.5t-20 -65.5t-10 -74t-0.5 -72z" />
    <glyph glyph-name="maitaikhuthai" unicode="&#xe47;" 
d="M-1085 2327q0 -11 3 -28t11.5 -32.5t24.5 -27t42 -11.5q47 0 68.5 29.5t17.5 97.5h263q-3 -68 17.5 -97.5t64.5 -29.5q43 0 54.5 31t2.5 96h291q15 -117 -5 -196t-64.5 -127t-108 -69t-134.5 -21q-41 0 -77.5 10.5t-67.5 28t-56.5 40.5t-43.5 47q-20 -26 -48.5 -49
t-63 -40t-72.5 -27t-78 -10q-71 0 -126 18t-96.5 48.5t-70 70.5t-46.5 82.5t-26 85.5t-8 80q0 106 39 183t103.5 127t148 74.5t172.5 24.5h835v-274h-807q-55 0 -87 -15t-48 -36t-20 -44t-4 -40z" />
    <glyph glyph-name="maiekthai" unicode="&#xe48;" 
d="M-545 3215h389v-557h-389v557z" />
    <glyph glyph-name="maithothai" unicode="&#xe49;" 
d="M-844 2658v271h-143v270h463v-250q66 8 120.5 30t93 55t60 75t21.5 90h340q0 -105 -42.5 -202.5t-128.5 -172.5t-215 -120.5t-303 -45.5h-266z" />
    <glyph glyph-name="maitrithai" unicode="&#xe4a;" 
d="M-319 2654q0 29 -0.5 67.5t-7 72.5t-21.5 57.5t-44 23.5q-21 0 -34 -13t-20.5 -33.5t-10 -45.5t-2.5 -49h-170q0 21 -2.5 45.5t-10 46t-21.5 35.5t-37 14q-30 0 -45.5 -23t-21.5 -57t-6.5 -72t-0.5 -69h-253q-8 123 13.5 214t62.5 151t96.5 89.5t117.5 29.5
q56 0 104 -27.5t85 -71.5q37 44 85.5 71.5t110.5 27.5q37 0 73 -11.5t66.5 -33t54.5 -52.5t36 -71q14 18 26.5 43.5t22 55t15 62t5.5 64.5h295q0 -83 -28.5 -172.5t-77.5 -167t-113.5 -132.5t-136.5 -69h-205z" />
    <glyph glyph-name="maichattawathai" unicode="&#xe4b;" 
d="M-164 2871v-213h-377v213h-241v291h241v209h377v-209h242v-291h-242z" />
    <glyph glyph-name="thanthakhatthai" unicode="&#xe4c;" 
d="M-82 2773q-75 0 -133 -20.5t-97.5 -58t-60 -89.5t-20.5 -115h-398q0 137 53 244t147.5 180.5t224.5 112.5t284 41v-295z" />
    <glyph glyph-name="nikhahitthai" unicode="&#xe4d;" 
d="M-504 2224q0 -24 10.5 -47t28.5 -41t41 -28.5t47 -10.5q26 0 50 10.5t42 28.5t28.5 41t10.5 47q0 26 -10.5 50t-28.5 42t-42 28.5t-50 10.5q-24 0 -47 -10.5t-41 -28.5t-28.5 -42t-10.5 -50zM-725 2224q0 74 27.5 138t74.5 111.5t110.5 75t135.5 27.5q71 0 135 -27.5
t112 -75t76.5 -111.5t28.5 -138q0 -72 -28.5 -135.5t-76.5 -110.5t-112 -74.5t-135 -27.5q-72 0 -135.5 27.5t-110.5 74.5t-74.5 110.5t-27.5 135.5z" />
    <glyph glyph-name="yamakkanthai" unicode="&#xe4e;" 
d="M-41 2372q-69 0 -113 -7.5t-68.5 -24t-34 -43t-9.5 -65.5v-94h-107q-48 0 -78.5 -15.5t-48.5 -45t-25 -71t-7 -93.5h-353q0 92 16.5 173t54 145.5t97.5 110t148 66.5q17 60 56.5 108.5t104.5 84t156 55.5t211 23v-307z" />
    <glyph glyph-name="fongmanthai" unicode="&#xe4f;" horiz-adv-x="2028" 
d="M131 836q0 122 31.5 234.5t89.5 210t139 178t180 137.5t212.5 88.5t236.5 31.5q121 0 232.5 -31.5t209 -88.5t177.5 -137.5t137 -178t88.5 -210t31.5 -234.5t-31.5 -234.5t-88.5 -210.5t-137 -178.5t-177.5 -137.5t-209 -88.5t-232.5 -31.5q-123 0 -236.5 31.5
t-212.5 88.5t-180 137.5t-139 178.5t-89.5 210.5t-31.5 234.5zM549 844q0 94 37.5 178t101.5 147.5t149.5 100.5t182.5 37q94 0 177.5 -37t146 -100.5t99 -147.5t36.5 -178q0 -97 -36.5 -182t-99 -148.5t-146 -100t-177.5 -36.5q-97 0 -182.5 36.5t-149.5 100t-101.5 148.5
t-37.5 182zM410 844q0 -83 21.5 -160.5t61 -145.5t95 -124t123.5 -96.5t146 -62.5t163 -22q82 0 158.5 22t143.5 62.5t122 96.5t94.5 124t61.5 145.5t22 160.5q0 124 -48 234t-130 191.5t-191.5 129t-232.5 47.5q-128 0 -239 -47.5t-193.5 -129t-130 -191.5t-47.5 -234z
M799 844q0 -46 16.5 -86.5t46 -70.5t70 -47t88.5 -17q43 0 81 17t66.5 47t45 70.5t16.5 86.5q0 43 -16.5 81.5t-45 67.5t-66.5 46.5t-81 17.5q-48 0 -88.5 -17.5t-70 -46.5t-46 -67.5t-16.5 -81.5z" />
    <glyph glyph-name="zerothai" unicode="&#xe50;" horiz-adv-x="1929" 
d="M1774 770q0 -152 -29 -271.5t-82 -209t-127 -152t-163.5 -101t-192.5 -56t-213 -17.5q-112 0 -215.5 17.5t-193.5 57t-164 102t-127 152t-82 208t-29 270.5q0 161 56 293.5t160.5 226.5t255 145.5t339.5 51.5q187 0 336.5 -51.5t254 -145.5t160.5 -226.5t56 -293.5z
M1372 717q0 114 -33 194t-88.5 130.5t-129 74t-154.5 23.5t-155.5 -23.5t-131 -74t-90 -130.5t-33.5 -194q0 -88 29.5 -162.5t83.5 -128.5t129.5 -84.5t167.5 -30.5t166.5 30.5t127.5 84.5t82 128.5t29 162.5z" />
    <glyph glyph-name="onethai" unicode="&#xe51;" horiz-adv-x="1905" 
d="M856 -33q-92 0 -192.5 7.5t-206.5 36.5t-216.5 86t-224.5 157l271 221q55 -60 123.5 -95t143 -53t150 -23t144.5 -5q115 0 205 31.5t151.5 92t94 148t32.5 199.5q0 84 -24.5 154.5t-74 120.5t-124 78t-174.5 28q-78 0 -144.5 -13t-114.5 -39.5t-75 -66.5t-27 -94
q0 -46 22 -82.5t72 -59t130.5 -28t197.5 9.5v-303q-35 -11 -72 -18t-71 -11.5t-62 -6t-45 -1.5q-121 0 -227.5 34t-186 96t-125.5 150t-46 195q0 103 30.5 186.5t84 147.5t126.5 110t158.5 76t180 44t190.5 14q170 0 319.5 -40t260.5 -126.5t175 -222.5t64 -328
q0 -180 -61 -328.5t-176.5 -255t-281 -165t-374.5 -58.5z" />
    <glyph glyph-name="twothai" unicode="&#xe52;" horiz-adv-x="2208" 
d="M1651 1012q0 40 -14.5 70t-39.5 48l-245 -196l-226 192q-18 -15 -29.5 -41.5t-11.5 -60.5v-61q0 -31 0.5 -56t6 -43t18 -27.5t37.5 -9.5h131v-327h-160q-103 0 -175 25t-119 66.5t-73 94.5t-38 109.5t-13.5 112t0.5 100.5q5 92 38 171t93 140.5t146.5 104.5t198.5 63
l176 -152l188 148q111 -14 205.5 -54.5t163.5 -102t108 -139.5t39 -167v-381q0 -115 -28.5 -208.5t-80 -167.5t-123.5 -128t-158.5 -89.5t-185 -53t-202.5 -17.5h-221q-207 0 -369.5 50t-274.5 141t-170.5 219t-58.5 283v508q0 83 -33.5 119t-113.5 36l65 352q109 0 199 -28
t154 -84.5t99.5 -142.5t35.5 -203v-586q0 -63 39.5 -120t113 -100.5t179 -69t237.5 -25.5q123 0 215 23t153.5 61t92.5 86.5t31 99.5v418v0z" />
    <glyph glyph-name="threethai" unicode="&#xe53;" horiz-adv-x="1925" 
d="M717 1122q-26 -8 -53 -28t-49 -58t-36 -96t-14 -141v-123q0 -69 1 -124t10 -96.5t28.5 -69.5t57.5 -41.5t97 -12.5t146 16v-328q-31 -9 -72 -16.5t-84 -12t-85 -5.5t-74 2q-108 14 -182.5 53.5t-123 94.5t-74.5 123t-38 139t-14 141.5t-2 132.5v102q0 174 43.5 300.5
t125.5 212.5t200.5 134.5t269.5 65.5l176 -152l184 148q160 -9 276.5 -58.5t192.5 -127t113 -177.5t37 -211v-909h-410v930q0 37 -10 71.5t-27.5 61.5t-41.5 44t-52 19l-270 -217z" />
    <glyph glyph-name="fourthai" unicode="&#xe54;" horiz-adv-x="1925" 
d="M938 1106q-84 0 -153 -17t-118 -50t-75.5 -82t-26.5 -113v-185q0 -65 18 -120t57 -96.5t99.5 -65.5t145.5 -25q-31 41 -50.5 87t-19.5 102q0 25 3 62.5t19 78.5t50 81.5t95.5 73t155.5 52.5t230 20v-331q-51 0 -82 -5.5t-48.5 -15.5t-23.5 -24.5t-6 -32.5q0 -32 11 -59.5
t31 -47t48 -30.5t62 -11h430v-352h-930q-139 0 -245.5 28.5t-184.5 77.5t-130.5 113.5t-84.5 136.5t-45.5 146.5t-13.5 144.5v156q0 169 57 293t162.5 205.5t255.5 121t336 39.5h352q42 0 68 16t41 45t20.5 68.5t5.5 87.5h418q0 -67 -9 -135t-31.5 -131.5t-61 -119.5
t-98.5 -97.5t-144 -65.5t-197 -24h-393z" />
    <glyph glyph-name="fivethai" unicode="&#xe55;" horiz-adv-x="1925" 
d="M938 1106q-84 0 -153 -17t-118 -50t-75.5 -82t-26.5 -113v-185q0 -65 18 -120t57 -96.5t99.5 -65.5t145.5 -25q-31 41 -50.5 87t-19.5 102q0 25 3 62.5t19 78.5t50 81.5t95.5 73t155.5 52.5t230 20v-331q-51 0 -82 -5.5t-48.5 -15.5t-23.5 -24.5t-6 -32.5q0 -32 11 -59.5
t31 -47t48 -30.5t62 -11h430v-352h-930q-139 0 -245.5 28.5t-184.5 77.5t-130.5 113.5t-84.5 136.5t-45.5 146.5t-13.5 144.5v156q0 129 33.5 231.5t97 179.5t154.5 129.5t206 81.5v21q0 66 27 125.5t73.5 104.5t108.5 71.5t131 26.5q72 0 134 -25t107.5 -68t72.5 -99.5
t30 -119.5q37 1 61 18t37.5 46t19 68t5.5 85h418q0 -67 -9 -135t-31.5 -131.5t-61 -119.5t-98.5 -97.5t-144 -65.5t-197 -24h-393zM877 1450q0 -21 8.5 -40.5t23.5 -34.5t35 -23.5t43 -8.5t43.5 8.5t35.5 23.5t23.5 34.5t8.5 40.5q0 23 -8.5 43t-23.5 35t-35.5 24t-43.5 9
t-43 -9t-35 -24t-23.5 -35t-8.5 -43z" />
    <glyph glyph-name="sixthai" unicode="&#xe56;" horiz-adv-x="1958" 
d="M537 1376q99 50 221.5 75.5t261.5 31.5q150 4 267 -21t204 -72.5t147 -114.5t97 -146.5t52.5 -169t14.5 -181.5v-102q-7 -94 -33 -183.5t-72 -168.5t-113 -144t-156.5 -111t-202.5 -69.5t-250 -19.5q-154 4 -280.5 44t-217 107.5t-140.5 159.5t-50 201q0 110 37.5 190.5
t106.5 133t166.5 77.5t217.5 25h135v-328h-123q-41 0 -67.5 -8t-41.5 -22.5t-20.5 -34t-5.5 -42.5q0 -32 21.5 -60t60.5 -48.5t94 -33t123 -13.5q77 -2 148.5 20t127 66t89 110t33.5 152v94q0 187 -87.5 273.5t-265.5 86.5q-78 0 -157 -9t-161 -31.5t-167.5 -61
t-177.5 -98.5l-328 512l328 184z" />
    <glyph glyph-name="seventhai" unicode="&#xe57;" horiz-adv-x="2322" 
d="M1642 791v-119q-3 -65 -10 -142t-35 -157q40 17 71.5 52.5t53 83t32.5 103.5t11 113v500q0 117 33 203t94 142.5t148 84.5t196 28l66 -315q-40 0 -68 -14.5t-46 -40t-26 -61t-8 -76.5v-426q0 -154 -55.5 -285t-159 -230.5t-250 -164.5t-329.5 -86l-262 188
q63 55 95.5 118.5t47 129t15.5 129t1 119.5v147q0 63 -7 112t-19.5 85.5t-30 61.5t-37.5 40l-245 -196l-238 204q-21 -15 -42 -41.5t-37 -65.5t-26 -90.5t-10 -117.5v-131q0 -28 1 -64t5 -73.5t12 -74t22.5 -65t36.5 -46t54 -17.5q19 0 69 2.5t124 17.5l4 -327
q-28 -6 -65 -14t-77.5 -13t-82 -6.5t-78.5 4.5q-103 21 -175 62.5t-120 96t-76 118.5t-42 131t-17.5 133.5t-3.5 126.5v110q0 160 39.5 283t115.5 211.5t187.5 143t255.5 75.5l172 -148l180 140q163 -22 267 -79.5t164 -146t82.5 -206.5t22.5 -260z" />
    <glyph glyph-name="eightthai" unicode="&#xe58;" horiz-adv-x="1884" 
d="M877 1098q-83 0 -142.5 -22t-97 -57.5t-55 -81t-17.5 -93.5v-291q0 -35 12 -68t31.5 -60t45 -46t51.5 -27l249 209l263 -213q26 4 48 14.5t38.5 31t26 53t9.5 81.5q0 20 -2 40t-7.5 36.5t-16 28t-27.5 14.5q-25 6 -59.5 7t-83.5 1v324h139q103 -6 178 -27.5t126 -54
t82.5 -75t48.5 -90.5t22.5 -100t5.5 -104q0 -126 -37.5 -227t-113.5 -172.5t-189.5 -110t-265.5 -38.5l-181 147l-172 -152q-155 11 -272.5 61t-197 128t-120 178t-40.5 211v246q0 155 47.5 278t141.5 208.5t234 131t326 45.5h357q40 0 66 16t41.5 45t21.5 68.5t6 87.5h413
q0 -67 -8.5 -135.5t-31 -133t-61 -121.5t-98 -99.5t-143 -67t-194.5 -24.5h-397z" />
    <glyph glyph-name="ninethai" unicode="&#xe59;" horiz-adv-x="1946" 
d="M1405 1483q37 0 60 13t36 37.5t18 61t5 84.5h372q0 -67 -6 -131t-24.5 -121t-52.5 -105.5t-90.5 -84t-138.5 -55t-195 -19.5q-21 0 -29 -8l-62 -61l537 -1094h-430l-471 958q-43 81 -91.5 126.5t-113.5 45.5q-35 0 -65 -16.5t-52 -56t-34.5 -106.5t-12.5 -169v-151
q1 -45 7.5 -96t22.5 -94.5t45 -72t77 -28.5q18 0 64 4t108 16l61 -340q-29 -6 -71.5 -13.5t-88.5 -13.5t-91 -9t-81 0q-106 12 -181.5 48t-127 88t-82 116.5t-46.5 134.5t-20.5 141.5t-4.5 138.5v119q0 175 29 308.5t96.5 223.5t178 135.5t273.5 45.5q29 0 63.5 -0.5
t69.5 -3.5t68.5 -10t60.5 -19q37 -15 67.5 -38.5t55.5 -51.5l74 82q12 12 34 26.5t56 14.5h123z" />
    <glyph glyph-name="angkhankhuthai" unicode="&#xe5a;" horiz-adv-x="2437" 
d="M1864 0v1679h413v-1679h-413zM1655 0v1679h-414v-450q0 -139 -98.5 -202.5t-282.5 -63.5q-80 0 -132.5 18.5t-84 48.5t-44.5 67t-13 74q0 75 40 119.5t124 44.5h303v344h-303q-68 0 -138 -11t-135.5 -35t-123 -63t-100.5 -95t-68 -130t-25 -169q0 -129 45 -234.5
t134.5 -180t222.5 -115t310 -40.5q103 0 197.5 23t171.5 63v-692h414z" />
    <glyph glyph-name="khomutthai" unicode="&#xe5b;" horiz-adv-x="3899" 
d="M3035 819q-23 -32 -50.5 -73.5t-61 -96t-73 -126t-85.5 -163.5q-68 137 -128 245.5t-110 189.5q-52 -90 -119 -233.5t-135 -344.5q-68 192 -129.5 324t-107.5 213q-25 -119 -74.5 -225t-119.5 -195.5t-157.5 -161t-188 -121.5t-211.5 -77t-228 -27q-144 0 -265.5 37
t-221 102t-175.5 153t-127 190.5t-77.5 214t-26.5 224.5q0 99 21.5 202t64 199t106 180.5t147.5 147.5t189 99.5t230 36.5q119 0 213.5 -30t167.5 -83t125 -125t85 -157t48.5 -178.5t15.5 -188.5l-385 -4q0 182 -59 272.5t-183 99.5q-97 -2 -168 -41.5t-117.5 -106t-69 -155
t-22.5 -188.5q0 -98 36 -188.5t101.5 -159.5t156.5 -110.5t202 -41.5q110 0 200 36.5t161.5 101t124.5 153.5t88 194.5t52 223.5t17 241l266 144q90 -99 168.5 -195.5t130.5 -177.5q28 42 60.5 91.5t66 99t65.5 96t58 82.5q34 -49 69.5 -100t69 -99.5t62.5 -92t49 -77.5
q28 40 55 78.5t52 69.5h626l262 -398h-737z" />
    <glyph glyph-name="ZWSP" unicode="&#x200b;" 
 />
    <glyph glyph-name="endash" unicode="&#x2013;" horiz-adv-x="1688" 
d="M1690 954v-323h-1690v323h1690z" />
    <glyph glyph-name="emdash" unicode="&#x2014;" horiz-adv-x="2135" 
d="M2133 954v-323h-2133v323h2133z" />
    <glyph glyph-name="quoteleft" unicode="&#x2018;" horiz-adv-x="852" 
d="M213 1237v369q0 87 22.5 172.5t71.5 154.5t126 114.5t185 51.5v-217q-50 -5 -79 -32.5t-44 -64t-19.5 -77t-4.5 -70.5h147v-401h-405z" />
    <glyph glyph-name="quoteright" unicode="&#x2019;" horiz-adv-x="852" 
d="M639 2032v-369q0 -87 -22.5 -173t-71.5 -155t-126 -114t-185 -51v217q49 5 78.5 32.5t44.5 64t19.5 77t4.5 70.5h-147v401h405z" />
    <glyph glyph-name="quotedblleft" unicode="&#x201c;" horiz-adv-x="1438" 
d="M202 1237v369q0 87 22.5 172.5t71.5 154.5t126 114.5t185 51.5v-217q-50 -5 -79 -32.5t-44 -64t-19.5 -77t-4.5 -70.5h147v-401h-405zM795 1237v369q0 87 22.5 172.5t71.5 154.5t126 114.5t185 51.5v-217q-50 -5 -79 -32.5t-44 -64t-19.5 -77t-4.5 -70.5h147v-401h-405z
" />
    <glyph glyph-name="quotedblright" unicode="&#x201d;" horiz-adv-x="1438" 
d="M1236 2032v-369q0 -87 -22.5 -173t-71.5 -155t-126 -114t-185 -51v217q49 5 78.5 32.5t44.5 64t19.5 77t4.5 70.5h-147v401h405zM643 2032v-369q0 -87 -22.5 -173t-71.5 -155t-126 -114t-185 -51v217q49 5 78.5 32.5t44.5 64t19.5 77t4.5 70.5h-147v401h405z" />
    <glyph glyph-name="bullet" unicode="&#x2022;" horiz-adv-x="1171" 
d="M74 860q0 64 18.5 125.5t51.5 115.5t79.5 99.5t103 78.5t121 51t134.5 18q106 0 199.5 -40t164 -107.5t111.5 -155.5t41 -185q0 -103 -41 -193t-111.5 -157t-164 -106t-199.5 -39q-70 0 -134.5 17.5t-121 50t-103 77.5t-79.5 100t-51.5 118t-18.5 132z" />
    <glyph glyph-name="Euro" unicode="&#x20ac;" horiz-adv-x="2232" 
d="M1670 1293q-30 99 -76.5 165t-104 105t-123 55t-134.5 16q-95 0 -171.5 -25t-135.5 -69.5t-102.5 -105.5t-71.5 -134h494v-260h-550v-48v-81h550v-260h-490q28 -72 72 -131.5t104 -102t136.5 -65.5t169.5 -23q100 0 179 28t134.5 78.5t88 121.5t40.5 157h425
q-16 -177 -83 -316.5t-180 -235.5t-270.5 -147t-354.5 -51q-191 0 -343 50t-265 141t-188 217.5t-111 278.5h-277v260h241v60v69h-241v260h281q39 154 117 283t194 222.5t269.5 145.5t343.5 52q164 0 308 -42.5t257.5 -130t191 -221.5t109.5 -316h-433v0z" />
    <glyph glyph-name="trademark" unicode="&#x2122;" horiz-adv-x="2737" 
d="M2258 775v694l-279 -694h-184l-283 690v-690h-282v1184h364l295 -727l287 727h369v-1184h-287zM779 1710v-935h-283v935h-328v249h939v-249h-328z" />
    <glyph glyph-name="uni25CC" unicode="&#x25cc;" horiz-adv-x="1868" 
d="M569 455l66 159q22 -34 47 -61.5t59 -48.5zM934 1303l74 -156q-41 9 -83 7t-73 -11zM934 303l-74 152q37 -10 68.5 -9.5t75.5 13.5zM1434 803l-156 -70q12 34 12.5 70.5t-8.5 77.5zM434 807l160 78q-6 -37 -7.5 -76.5t7.5 -79.5zM598 1159l164 -57q-43 -22 -73.5 -47
t-49.5 -56zM1274 451l-152 49q34 21 59.5 46t47.5 56zM1298 1159l-69 -164q-22 34 -51 61.5t-60 49.5z" />
    <glyph glyph-name="thothannobasethai" unicode="&#xf700;" horiz-adv-x="1647" 
d="M434 618h-205v345h516l160 -484q17 46 37.5 101t40.5 112.5t38.5 114.5t32.5 107.5t22.5 91.5t8.5 67q0 132 -68.5 207.5t-209.5 75.5q-115 0 -185 -68t-98 -198h-454q24 138 87 253t161 198t229.5 129t292.5 46q65 0 131 -9t131 -28q21 8 38.5 25t30.5 38.5t20 47
t9 49.5h438q-2 -54 -14.5 -112t-37.5 -112t-63.5 -99.5t-92.5 -73.5q40 -65 63 -148t23 -188q0 -55 -16.5 -131.5t-45 -167t-66.5 -191.5t-81 -205.5t-88.5 -209t-88.5 -201.5h-475z" />
    <glyph glyph-name="yoyingnobasethai" unicode="&#xf70f;" horiz-adv-x="2666" 
d="M1176 1032q0 57 -17 113.5t-56 102t-103.5 74t-159.5 30.5q-68 1 -123 -13t-97.5 -37.5t-71.5 -52.5t-44 -57q52 -50 81 -124t29 -167v-577h172v-324h-589v905q0 28 -6.5 57.5t-22.5 58t-44 55.5t-71 50q17 72 48.5 143.5t79 137t111 122t145 98t182 65.5t221.5 24
q144 0 256.5 -27.5t196.5 -76.5t142 -116t94 -147t52 -169t16 -181v-426q0 -63 20.5 -111t55 -80.5t80 -49.5t94.5 -17q48 0 91.5 15t77 46.5t53.5 80t20 116.5v1106h422v-1130q0 -101 -25.5 -184.5t-71 -149t-108 -114t-136.5 -80t-156 -47t-167 -15.5q-87 0 -170.5 16.5
t-158 50t-137.5 83t-108.5 115t-71 147t-25.5 178.5v483z" />
    <glyph glyph-name="saraulowthai" unicode="&#xf718;" 
d="M-537 -1446v422h-188v299h569v-721h-381z" />
    <glyph glyph-name="sarauulowthai" unicode="&#xf719;" 
d="M-1282 -725h532v-262q0 -65 25.5 -98t81.5 -33q106 0 106 131v262h381v-262q0 -94 -25.5 -177.5t-83 -146t-150.5 -99t-228 -36.5q-122 0 -210 29.5t-147.5 82t-91 125.5t-38.5 160h-152v324z" />
    <glyph glyph-name="phinthulowthai" unicode="&#xf71a;" 
d="M-631 -963q0 54 21 102t56.5 83.5t83 56.5t101.5 21q52 0 99 -21t82.5 -56.5t56 -83.5t20.5 -102q0 -52 -20.5 -99t-56 -82t-82.5 -56t-99 -21q-54 0 -101.5 21t-83 56t-56.5 82t-21 99z" />
    <glyph glyph-name="lochula.short" unicode="&#xf71d;" horiz-adv-x="2195" 
d="M1729 0h-316l-311 848l-299 -848h-324l-438 1679h459l184 -1007l274 745h291l287 -770l102 459q14 67 18.5 118t-11.5 85.5t-59 53t-124 21.5v304q77 1 140 15t109.5 42.5t75 73.5t36.5 110h467q-12 -89 -46.5 -159t-80.5 -123.5t-97.5 -90t-99.5 -57.5
q29 -40 52.5 -86.5t37.5 -96t16 -100t-12 -98.5z" />
    <glyph glyph-name="yamakkanleftthai" 
d="M-680 2372q-69 0 -113 -7.5t-68.5 -24t-34 -43t-9.5 -65.5v-94h-107q-48 0 -78.5 -15.5t-48.5 -45t-25 -71t-7 -93.5h-353q0 92 16.5 173t54 145.5t97.5 110t148 66.5q17 60 56.5 108.5t104.5 84t156 55.5t211 23v-307z" />
    <glyph glyph-name="saraamleft" horiz-adv-x="1470" 
d="M467 1090q9 133 66.5 199.5t150.5 66.5q104 0 158.5 -65t54.5 -210v-1081h418v1135q0 149 -48.5 258.5t-133.5 181t-200.5 106.5t-248.5 35q-123 0 -239.5 -41t-207 -120.5t-145.5 -196t-55 -268.5h430zM-1196 2224q0 -24 10.5 -47t28 -41t40.5 -28.5t48 -10.5
q26 0 50 10.5t42 28.5t28.5 41t10.5 47q0 26 -10.5 50t-28.5 42t-42 28.5t-50 10.5q-25 0 -48 -10.5t-40.5 -28.5t-28 -42t-10.5 -50zM-1417 2224q0 74 27 138t74.5 111.5t111 75t135.5 27.5q70 0 134 -27.5t112.5 -75t77 -111.5t28.5 -138q0 -72 -28.5 -135.5t-77 -110.5
t-112.5 -74.5t-134 -27.5q-72 0 -135.5 27.5t-111 74.5t-74.5 110.5t-27 135.5z" />
    <glyph glyph-name="uni0E33.alt1" horiz-adv-x="1470" 
d="M467 1090q9 133 66.5 199.5t150.5 66.5q104 0 158.5 -65t54.5 -210v-1081h418v1135q0 149 -48.5 258.5t-133.5 181t-200.5 106.5t-248.5 35q-123 0 -239.5 -41t-207 -120.5t-145.5 -196t-55 -268.5h430zM-1196 2224q0 -24 10.5 -47t28 -41t40.5 -28.5t48 -10.5
q26 0 50 10.5t42 28.5t28.5 41t10.5 47q0 26 -10.5 50t-28.5 42t-42 28.5t-50 10.5q-25 0 -48 -10.5t-40.5 -28.5t-28 -42t-10.5 -50zM-1417 2224q0 74 27 138t74.5 111.5t111 75t135.5 27.5q70 0 134 -27.5t112.5 -75t77 -111.5t28.5 -138q0 -72 -28.5 -135.5t-77 -110.5
t-112.5 -74.5t-134 -27.5q-72 0 -135.5 27.5t-111 74.5t-74.5 110.5t-27 135.5z" />
    <glyph glyph-name="saraithai.alt1" 
d="M-1438 1917l164 319h1114v-319h-1278z" />
    <glyph glyph-name="saraiithai.alt1" 
d="M-1274 2236h717v258h397v-577h-1278z" />
    <glyph glyph-name="sarauethai.alt1" 
d="M-741 2249q0 64 24.5 121t66.5 99t98.5 66.5t121.5 24.5q64 0 121 -25t99 -68t66.5 -100.5t24.5 -121.5q0 -71 -24.5 -131t-66.5 -104t-99 -68.5t-121 -24.5h-1008l164 319h533v13zM-541 2249q0 -22 8.5 -41.5t23.5 -34t35.5 -23t43.5 -8.5t43 8.5t35 23t24 34t9 41.5
q0 23 -9 43t-24 35t-35 23.5t-43 8.5t-43.5 -8.5t-35.5 -23.5t-23.5 -35t-8.5 -43z" />
    <glyph glyph-name="saraueethai.alt1" 
d="M-1274 2236h328v258h328v-258h131v258h327v-577h-1278z" />
    <glyph glyph-name="saraithai.alt2" 
d="M-2220 1917l164 319h1401v-319h-1565z" />
    <glyph glyph-name="saraiithai.alt2" 
d="M-2056 2236h1003v258h398v-577h-1565z" />
    <glyph glyph-name="sarauethai.alt2" 
d="M-1200 2249q0 64 24.5 121t66.5 99t98.5 66.5t121.5 24.5q64 0 121 -25t99 -68t66.5 -100.5t24.5 -121.5q0 -71 -24.5 -131t-66.5 -104t-99 -68.5t-121 -24.5h-1331l164 319h856v13zM-999 2249q0 -22 8.5 -41.5t23.5 -34t35 -23t43 -8.5t43.5 8.5t35.5 23t23.5 34
t8.5 41.5q0 23 -8.5 43t-23.5 35t-35.5 23.5t-43.5 8.5t-43 -8.5t-35 -23.5t-23.5 -35t-8.5 -43z" />
    <glyph glyph-name="saraueethai.alt2" 
d="M-2056 2236h614v258h328v-258h131v258h328v-577h-1565z" />
    <glyph glyph-name="maiekthai.alt2" 
d="M-1044 3240h389v-582h-389v582z" />
    <glyph glyph-name="maithothai.alt2" 
d="M-1229 2658v271h-143v270h463v-250q67 0 124.5 21t98.5 56t64.5 80t23.5 93h324q0 -105 -42.5 -202.5t-128.5 -172.5t-215 -120.5t-303 -45.5h-266z" />
    <glyph glyph-name="maitrithai.alt2" 
d="M-808 2654q0 29 -0.5 67.5t-7 72.5t-21.5 57.5t-44 23.5q-21 0 -34 -13t-20.5 -33.5t-10 -45.5t-2.5 -49h-170q0 21 -2.5 45.5t-10 46t-21.5 35.5t-37 14q-30 0 -45.5 -23t-21.5 -57t-6.5 -72t-0.5 -69h-253q-8 123 13.5 214t62.5 151t96.5 89.5t117.5 29.5
q56 0 104 -27.5t85 -71.5q37 44 85.5 71.5t110.5 27.5q37 0 73 -11.5t66.5 -33t54.5 -52.5t36 -71q14 18 26.5 43.5t22 55t15 62t5.5 64.5h295q0 -83 -28.5 -172.5t-77.5 -167t-113.5 -132.5t-136.5 -69h-205z" />
    <glyph glyph-name="maichattawathai.alt2" 
d="M-659 2871v-213h-377v213h-242v291h242v209h377v-209h241v-291h-241z" />
    <glyph glyph-name="saraithai.alt3" 
d="M-2115 1917l163 319h1792v-319h-1955z" />
    <glyph glyph-name="saraiithai.alt3" 
d="M-1952 2236h1395v258h397v-577h-1955z" />
    <glyph glyph-name="sarauethai.alt3" 
d="M-737 2249q0 64 24.5 121t66.5 99t98.5 66.5t121.5 24.5q64 0 121 -25t99 -68t66.5 -100.5t24.5 -121.5q0 -71 -24.5 -131t-66.5 -104t-99 -68.5t-121 -24.5h-1689l163 319h1215v13zM-537 2249q0 -22 9 -41.5t24 -34t35 -23t43 -8.5t43 8.5t35 23t24 34t9 41.5
q0 23 -9 43t-24 35t-35 23.5t-43 8.5t-43 -8.5t-35 -23.5t-24 -35t-9 -43z" />
    <glyph glyph-name="saraueethai.alt3" 
d="M-1952 2236h1010v258h328v-258h131v258h327v-577h-1959z" />
    <glyph glyph-name="maiekthai.alt4" 
d="M-545 3076h389v-582h-389v582z" />
    <glyph glyph-name="maithothai.alt4" 
d="M-844 2494v271h-143v270h463v-250q67 0 126 21t103 56t69 80t25 93h312q0 -104 -42.5 -201.5t-128.5 -173t-215 -121t-303 -45.5h-266z" />
    <glyph glyph-name="maitrithai.alt4" 
d="M-442 2490q0 29 -0.5 67.5t-7 72.5t-21.5 57.5t-44 23.5q-21 0 -34 -13t-20.5 -33.5t-10 -45.5t-2.5 -49h-170q0 21 -2.5 45.5t-10 46t-21.5 35.5t-37 14q-30 0 -45.5 -23t-21.5 -57t-6.5 -72t-0.5 -69h-253q-8 123 13.5 214t62.5 151t96.5 89.5t117.5 29.5
q56 0 104 -27.5t85 -71.5q37 44 85.5 71.5t110.5 27.5q37 0 73 -11.5t66.5 -33t54.5 -52.5t36 -71q14 18 26.5 43.5t22 55t15 62t5.5 64.5h295q0 -83 -28.5 -172.5t-77.5 -167t-113.5 -132.5t-136.5 -69h-205z" />
    <glyph glyph-name="maichattawathai.alt4" 
d="M-164 2707v-213h-377v213h-241v291h241v209h377v-209h242v-291h-242z" />
    <glyph glyph-name="maiekthai.alt5" 
d="M-1085 3076h389v-582h-389v582z" />
    <glyph glyph-name="maithothai.alt5" 
d="M-1270 2494v271h-143v270h463v-250q67 0 124.5 21t98.5 56t64.5 80t23.5 93h324q0 -104 -42.5 -201.5t-128.5 -173t-215 -121t-303 -45.5h-266z" />
    <glyph glyph-name="maitrithai.alt5" 
d="M-848 2494q0 29 -0.5 67.5t-7 72.5t-21.5 57.5t-44 23.5q-21 0 -34 -13t-20.5 -33.5t-10 -45.5t-2.5 -49h-170q0 21 -2.5 45.5t-10 46t-21.5 35.5t-37 14q-30 0 -45.5 -23t-21.5 -57t-6.5 -72t-0.5 -69h-253q-8 123 13.5 214t62.5 151t96.5 89.5t117.5 29.5
q56 0 104 -27.5t85 -71.5q37 44 85.5 71.5t110.5 27.5q37 0 73 -11.5t66.5 -33t54.5 -52.5t36 -71q14 18 26.5 43.5t22 55t15 62t5.5 64.5h295q0 -83 -28.5 -172.5t-77.5 -167t-113.5 -132.5t-136.5 -69h-205z" />
    <glyph glyph-name="maichattawathai.alt5" 
d="M-700 2707v-213h-377v213h-242v291h242v209h377v-209h241v-291h-241z" />
    <glyph glyph-name="sarauthai.alt6" 
d="M-831 -922v422h-189v299h569v-721h-380z" />
    <glyph glyph-name="sarauuthai.alt6" 
d="M-1348 -201h533v-262q0 -65 25.5 -98t80.5 -33q107 0 107 131v262h381v-262q0 -94 -25.5 -177.5t-83 -146t-151 -99t-228.5 -36.5q-121 0 -209.5 29.5t-147.5 82t-91 125.5t-39 161h-152v323z" />
    <glyph glyph-name="phinthuthai.alt6" 
d="M-934 -389q0 54 21 101.5t56.5 83t83 56.5t101.5 21q52 0 99 -21t82.5 -56.5t56 -83t20.5 -101.5q0 -52 -20.5 -99t-56 -82t-82.5 -56t-99 -21q-54 0 -101.5 21t-83 56t-56.5 82t-21 99z" />
    <glyph glyph-name="sarauthai.alt7" 
d="M-782 -922v422h-189v299h570v-721h-381z" />
    <glyph glyph-name="sarauuthai.alt7" 
d="M-1602 -201h533v-262q0 -65 25.5 -98t80.5 -33q107 0 107 131v262h381v-262q0 -94 -25.5 -177.5t-83 -146t-151 -99t-228.5 -36.5q-121 0 -209.5 29.5t-147.5 82t-91 125.5t-39 161h-152v323z" />
    <glyph glyph-name="phinthuthai.alt7" 
d="M-934 -389q0 54 21 101.5t56.5 83t83 56.5t101.5 21q52 0 99 -21t82.5 -56.5t56 -83t20.5 -101.5q0 -52 -20.5 -99t-56 -82t-82.5 -56t-99 -21q-54 0 -101.5 21t-83 56t-56.5 82t-21 99z" />
    <glyph glyph-name="maihanakatthai.alt8" 
d="M-1282 1917v463h369v-144h1286v-319h-1655z" />
    <glyph glyph-name="maiekthai.alt8" 
d="M-1085 3240h389v-582h-389v582z" />
    <glyph glyph-name="maithothai.alt8" 
d="M-1270 2658v271h-143v270h463v-250q66 0 124.5 21t103 56t70 80t25.5 93h312q0 -105 -42.5 -202.5t-128.5 -172.5t-215 -120.5t-303 -45.5h-266z" />
    <glyph glyph-name="maitrithai.alt8" 
d="M-848 2654q0 29 -0.5 67.5t-7 72.5t-21.5 57.5t-44 23.5q-21 0 -34 -13t-20.5 -33.5t-10 -45.5t-2.5 -49h-170q0 21 -2.5 45.5t-10 46t-21.5 35.5t-37 14q-30 0 -45.5 -23t-21.5 -57t-6.5 -72t-0.5 -69h-253q-8 123 13.5 214t62.5 151t96.5 89.5t117.5 29.5
q56 0 104 -27.5t85 -71.5q37 44 85.5 71.5t110.5 27.5q37 0 73 -11.5t66.5 -33t54.5 -52.5t36 -71q14 18 26.5 43.5t22 55t15 62t5.5 64.5h295q0 -83 -28.5 -172.5t-77.5 -167t-113.5 -132.5t-136.5 -69h-205z" />
    <glyph glyph-name="maichattawathai.alt8" 
d="M-700 2871v-213h-377v213h-242v291h242v209h377v-209h241v-291h-241z" />
    <glyph glyph-name="maiekupperleftthai.alt11" 
d="M-1224 3235h389v-557h-389v557z" />
    <glyph glyph-name="maichattawaupperleftthai.alt11" 
d="M-839 2871v-213h-376v213h-242v291h242v209h376v-209h242v-291h-242z" />
    <glyph glyph-name="sarauthai.alt9" 
d="M-817 -922v422h-188v299h569v-721h-381z" />
    <glyph glyph-name="sarauuthai.alt9" 
d="M-1382 -201h532v-262q0 -65 25.5 -98t81.5 -33q106 0 106 131v262h381v-262q0 -94 -25.5 -177.5t-83 -146t-150.5 -99t-228 -36.5q-122 0 -210 29.5t-147.5 82t-91 125.5t-38.5 161h-152v323z" />
    <glyph glyph-name="phinthuthai.alt9" 
d="M-973 -389q0 54 21 101.5t56.5 83t83.5 56.5t102 21q52 0 99 -21t82 -56.5t56 -83t21 -101.5q0 -52 -21 -99t-56 -82t-82 -56t-99 -21q-54 0 -102 21t-83.5 56t-56.5 82t-21 99z" />
    </font>
</defs>
</svg>
