<svg xmlns="http://www.w3.org/2000/svg">
<defs>
<font id="DBHeavent" horiz-adv-x="0" >
  <font-face 
    font-family="DB Heavent"
    font-weight="400"
    font-stretch="normal"
    units-per-em="4096"
    panose-1="2 0 5 6 6 0 0 2 0 4"
    ascent="3276"
    descent="-820"
    x-height="1454"
    cap-height="1955"
    bbox="-2125 -1282 3457 3240"
    underline-thickness="82"
    underline-position="-627"
    unicode-range="U+000D-F880"
  />
<missing-glyph horiz-adv-x="1151" 
d="M1176 1114v-41h16q20 0 20 29q-1 3 -4 6q-6 6 -16 6h-16zM1184 1069h-8v-37h-13v94h29q15 0 24 -6t9 -18q0 -25 -8.5 -29t-20.5 -4l29 -37h-13zM1192 1020q17 0 28.5 5.5t19 13.5t10.5 17t3 17q0 34 -16.5 50t-44.5 16t-47 -16t-19 -50q0 -22 14.5 -37.5t51.5 -15.5z
M1192 1147q34 0 52 -20t18 -54q0 -22 -18 -41.5t-52 -19.5q-37 0 -55.5 19.5t-18.5 41.5q0 34 18.5 54t55.5 20zM561 881q27 -3 63.5 -7.5t76.5 -10.5t81.5 -13.5t78.5 -16.5t65.5 -19.5t44.5 -22.5q-29 54 -75 96.5t-101.5 72t-116.5 45t-121 15.5q-48 0 -94.5 -9
t-89 -27.5t-78.5 -46.5t-62 -65q50 4 101 6.5t100 2.5h127zM1049 1102v-397q-140 40 -311.5 69t-360.5 29q-133 0 -262 -12q12 61 48.5 117.5t93.5 99.5t132 68.5t164 25.5q86 0 155 -19.5t121.5 -48.5t88 -62t53.5 -59v189h78zM426 352q0 25 -15 35t-30 10q-25 0 -37 -10
t-12 -35q0 -41 49 -41q15 0 30 10t15 31zM90 389q0 63 25.5 112.5t67 83.5t94.5 52t108 18q57 0 108.5 -15.5t90 -47.5t61.5 -80.5t23 -114.5v-323h303v565h78v-635h-533v70h82v332q0 44 -16.5 76.5t-45 53.5t-66.5 31.5t-81 10.5t-83 -12t-70.5 -35.5t-49 -57t-18.5 -76.5
v-295l164 164q-6 1 -16.5 7.5t-20.5 17t-17.5 26t-7.5 35.5q0 53 31 82t84 29q23 0 43 -8.5t35 -23.5t24 -35.5t9 -43.5q0 -18 -5.5 -33.5t-13 -26.5t-16.5 -18t-15 -8q-2 -6 -14.5 -18.5t-31.5 -30.5t-42.5 -41t-46.5 -49q-31 -28 -64 -58.5t-67 -64.5h-90v385z" />
    <glyph glyph-name="plusminus" unicode="&#x2b;&#x2d;" horiz-adv-x="1667" 
d="M1540 209v-209h-1417v209h1417zM1542 1110v-217h-598v-606h-217v606h-602v217h602v606h217v-606h598z" />
    <glyph glyph-name="ellipsis" unicode="&#x2e;&#x2e;&#x2e;" horiz-adv-x="2777" 
d="M2474 328v-328h-324v328h324zM1548 328v-328h-323v328h323zM623 328v-328h-320v328h320z" />
    <glyph glyph-name="lessequal" unicode="&#x3c;&#x3d;" horiz-adv-x="1647" 
d="M1548 209v-209h-1433v209h1433zM381 1106l1167 -524v-213l-1433 639v200l1433 643v-217z" />
    <glyph glyph-name="greaterequal" unicode="&#x3e;&#x3d;" horiz-adv-x="1683" 
d="M115 1634v217l1433 -643v-200l-1433 -639v213l1167 524zM1548 209v-209h-1433v209h1433z" />
    <glyph glyph-name="fongmanfunnuthai" unicode="&#xe4f;&#x22;" horiz-adv-x="2028" 
d="M1102 2417h246l-29 -459h-184zM684 2417h242l-33 -459h-180zM123 836q0 122 31.5 234.5t89.5 210t139 178t180 137.5t212.5 88.5t236.5 31.5q121 0 232.5 -31.5t209 -88.5t177.5 -137.5t137 -178t88.5 -210t31.5 -234.5t-31.5 -234.5t-88.5 -210.5t-137 -178.5
t-177.5 -137.5t-209 -88.5t-232.5 -31.5q-123 0 -236.5 31.5t-212.5 88.5t-180 137.5t-139 178.5t-89.5 210.5t-31.5 234.5zM352 844q0 -90 23.5 -174t66 -157.5t102.5 -134t133 -103.5t158 -67t177 -24q89 0 172 24t155 67t132 103.5t102.5 134t66 157.5t23.5 174
t-23.5 173t-66 155.5t-102.5 132t-132 102t-155 65.5t-172 23q-92 0 -177 -23t-158 -65.5t-133 -102t-102.5 -132t-66 -155.5t-23.5 -173zM541 844q0 94 37.5 178t101.5 147.5t149.5 100.5t182.5 37q94 0 177 -37t145.5 -100.5t99 -147.5t36.5 -178q0 -97 -36.5 -182
t-99 -148.5t-145.5 -100t-177 -36.5q-97 0 -182.5 36.5t-149.5 100t-101.5 148.5t-37.5 182zM741 844q0 -57 20.5 -106.5t56.5 -86t85.5 -57.5t108.5 -21q54 0 101 21t82 57.5t55 86t20 106.5q0 54 -20 101.5t-55 83t-82 56.5t-101 21q-59 0 -108.5 -21t-85.5 -56.5
t-56.5 -83t-20.5 -101.5z" />
    <glyph glyph-name="dochadaphinthuthai" unicode="&#xe0e;&#xe3a;" horiz-adv-x="1794" 
d="M1286 -840q0 40 16 76t43 63t63.5 42.5t78.5 15.5q40 0 75.5 -15.5t62.5 -42.5t42.5 -63t15.5 -76q0 -41 -15.5 -77.5t-42.5 -63.5t-62.5 -43t-75.5 -16q-42 0 -78.5 16t-63.5 43t-43 63.5t-16 77.5zM1626 -512h-274q-34 49 -79 85.5t-97.5 60.5t-111 35.5t-118.5 11.5
q-68 0 -134 -14t-127 -41t-113.5 -68t-92.5 -95v250q48 45 103 78t115 54.5t123 32.5t126 11q109 0 212.5 -32.5t193.5 -94.5v1287q0 78 -23.5 155t-78.5 138.5t-145.5 100t-223.5 40.5q-78 1 -142.5 -13.5t-115.5 -38.5t-90 -55t-65 -64t-40.5 -64.5t-17.5 -55.5
q29 -17 51.5 -45.5t38.5 -66t24 -82t8 -93.5v-905h-434v209h164v700q0 39 -5.5 78.5t-20.5 77t-41 70t-68 57.5q21 95 74 189t144 168.5t223.5 120.5t312.5 46q142 0 252.5 -27t193.5 -74.5t140 -113.5t92.5 -143.5t51 -164.5t15.5 -177v-1528z" />
    <glyph glyph-name="topatakphintuthai" unicode="&#xe0f;&#xe3a;" horiz-adv-x="1794" 
d="M1286 -840q0 40 16 76t43 63t63.5 42.5t78.5 15.5q40 0 75.5 -15.5t62.5 -42.5t42.5 -63t15.5 -76q0 -41 -15.5 -77.5t-42.5 -63.5t-62.5 -43t-75.5 -16q-42 0 -78.5 16t-63.5 43t-43 63.5t-16 77.5zM1352 1049q0 78 -23.5 155t-78.5 138.5t-145.5 100t-223.5 40.5
q-78 1 -142.5 -13.5t-115.5 -38.5t-90 -55t-65 -64t-40.5 -64.5t-17.5 -55.5q29 -17 51.5 -45.5t38.5 -66t24 -82t8 -93.5v-905h-434v209h164v700q0 39 -5.5 78.5t-20.5 77t-41 70t-68 57.5q21 95 74 189t144 168.5t223.5 120.5t312.5 46q142 0 252.5 -27t193.5 -74.5
t140 -113.5t92.5 -143.5t51 -164.5t15.5 -177v-1528h-274q-6 29 -21 62t-40.5 61t-62 46.5t-85.5 18.5t-86 -18t-61.5 -45.5t-37 -60.5t-12.5 -64h-217q0 21 -8 54t-29 64t-56.5 53t-90.5 22q-46 0 -78 -17.5t-52 -45.5t-29 -62t-9 -68h-250q0 103 31.5 179t85 126.5
t125 75.5t151.5 25q109 0 184.5 -47.5t118.5 -137.5q23 45 56.5 77.5t71 53.5t77 31t74.5 10q51 0 91 -12.5t70.5 -30.5t52.5 -38.5t36 -37.5v1287z" />
    <glyph glyph-name="dochadasarauthai" unicode="&#xe0e;&#xe38;" horiz-adv-x="1794" 
d="M1372 -1257v397h-147v201h405v-598h-258zM1626 -512h-274q-34 49 -79 85.5t-97.5 60.5t-111 35.5t-118.5 11.5q-68 0 -134 -14t-127 -41t-113.5 -68t-92.5 -95v250q48 45 103 78t115 54.5t123 32.5t126 11q109 0 212.5 -32.5t193.5 -94.5v1287q0 78 -23.5 155
t-78.5 138.5t-145.5 100t-223.5 40.5q-78 1 -142.5 -13.5t-115.5 -38.5t-90 -55t-65 -64t-40.5 -64.5t-17.5 -55.5q29 -17 51.5 -45.5t38.5 -66t24 -82t8 -93.5v-905h-434v209h164v700q0 39 -5.5 78.5t-20.5 77t-41 70t-68 57.5q21 95 74 189t144 168.5t223.5 120.5
t312.5 46q142 0 252.5 -27t193.5 -74.5t140 -113.5t92.5 -143.5t51 -164.5t15.5 -177v-1528z" />
    <glyph glyph-name="topataksarauthai" unicode="&#xe0f;&#xe38;" horiz-adv-x="1794" 
d="M1372 -1257v397h-147v201h405v-598h-258zM1352 1049q0 78 -23.5 155t-78.5 138.5t-145.5 100t-223.5 40.5q-78 1 -142.5 -13.5t-115.5 -38.5t-90 -55t-65 -64t-40.5 -64.5t-17.5 -55.5q29 -17 51.5 -45.5t38.5 -66t24 -82t8 -93.5v-905h-434v209h164v700q0 39 -5.5 78.5
t-20.5 77t-41 70t-68 57.5q21 95 74 189t144 168.5t223.5 120.5t312.5 46q142 0 252.5 -27t193.5 -74.5t140 -113.5t92.5 -143.5t51 -164.5t15.5 -177v-1528h-274q-6 29 -21 62t-40.5 61t-62 46.5t-85.5 18.5t-86 -18t-61.5 -45.5t-37 -60.5t-12.5 -64h-217q0 21 -8 54
t-29 64t-56.5 53t-90.5 22q-46 0 -78 -17.5t-52 -45.5t-29 -62t-9 -68h-250q0 103 31.5 179t85 126.5t125 75.5t151.5 25q109 0 184.5 -47.5t118.5 -137.5q23 45 56.5 77.5t71 53.5t77 31t74.5 10q51 0 91 -12.5t70.5 -30.5t52.5 -38.5t36 -37.5v1287z" />
    <glyph glyph-name="dochadasarauuthai" unicode="&#xe0e;&#xe39;" horiz-adv-x="1794" 
d="M627 -659h409v-201q0 -96 41 -144.5t127 -48.5q168 0 168 193v201h258v-201q0 -81 -22 -153.5t-72.5 -126.5t-132 -85.5t-199.5 -31.5q-117 0 -198.5 28.5t-133 80.5t-75 125.5t-23.5 162.5h-147v201zM1626 -512h-274q-34 49 -79 85.5t-97.5 60.5t-111 35.5t-118.5 11.5
q-68 0 -134 -14t-127 -41t-113.5 -68t-92.5 -95v250q48 45 103 78t115 54.5t123 32.5t126 11q109 0 212.5 -32.5t193.5 -94.5v1287q0 78 -23.5 155t-78.5 138.5t-145.5 100t-223.5 40.5q-78 1 -142.5 -13.5t-115.5 -38.5t-90 -55t-65 -64t-40.5 -64.5t-17.5 -55.5
q29 -17 51.5 -45.5t38.5 -66t24 -82t8 -93.5v-905h-434v209h164v700q0 39 -5.5 78.5t-20.5 77t-41 70t-68 57.5q21 95 74 189t144 168.5t223.5 120.5t312.5 46q142 0 252.5 -27t193.5 -74.5t140 -113.5t92.5 -143.5t51 -164.5t15.5 -177v-1528z" />
    <glyph glyph-name="topataksarauuthai" unicode="&#xe0f;&#xe39;" horiz-adv-x="1794" 
d="M627 -659h409v-201q0 -96 41 -144.5t127 -48.5q168 0 168 193v201h258v-201q0 -81 -22 -153.5t-72.5 -126.5t-132 -85.5t-199.5 -31.5q-117 0 -198.5 28.5t-133 80.5t-75 125.5t-23.5 162.5h-147v201zM1352 1049q0 78 -23.5 155t-78.5 138.5t-145.5 100t-223.5 40.5
q-78 1 -142.5 -13.5t-115.5 -38.5t-90 -55t-65 -64t-40.5 -64.5t-17.5 -55.5q29 -17 51.5 -45.5t38.5 -66t24 -82t8 -93.5v-905h-434v209h164v700q0 39 -5.5 78.5t-20.5 77t-41 70t-68 57.5q21 95 74 189t144 168.5t223.5 120.5t312.5 46q142 0 252.5 -27t193.5 -74.5
t140 -113.5t92.5 -143.5t51 -164.5t15.5 -177v-1528h-274q-6 29 -21 62t-40.5 61t-62 46.5t-85.5 18.5t-86 -18t-61.5 -45.5t-37 -60.5t-12.5 -64h-217q0 21 -8 54t-29 64t-56.5 53t-90.5 22q-46 0 -78 -17.5t-52 -45.5t-29 -62t-9 -68h-250q0 103 31.5 179t85 126.5
t125 75.5t151.5 25q109 0 184.5 -47.5t118.5 -137.5q23 45 56.5 77.5t71 53.5t77 31t74.5 10q51 0 91 -12.5t70.5 -30.5t52.5 -38.5t36 -37.5v1287z" />
    <glyph glyph-name=".notdef" horiz-adv-x="1151" 
d="M1176 1114v-41h16q20 0 20 29q-1 3 -4 6q-6 6 -16 6h-16zM1184 1069h-8v-37h-13v94h29q15 0 24 -6t9 -18q0 -25 -8.5 -29t-20.5 -4l29 -37h-13zM1192 1020q17 0 28.5 5.5t19 13.5t10.5 17t3 17q0 34 -16.5 50t-44.5 16t-47 -16t-19 -50q0 -22 14.5 -37.5t51.5 -15.5z
M1192 1147q34 0 52 -20t18 -54q0 -22 -18 -41.5t-52 -19.5q-37 0 -55.5 19.5t-18.5 41.5q0 34 18.5 54t55.5 20zM561 881q27 -3 63.5 -7.5t76.5 -10.5t81.5 -13.5t78.5 -16.5t65.5 -19.5t44.5 -22.5q-29 54 -75 96.5t-101.5 72t-116.5 45t-121 15.5q-48 0 -94.5 -9
t-89 -27.5t-78.5 -46.5t-62 -65q50 4 101 6.5t100 2.5h127zM1049 1102v-397q-140 40 -311.5 69t-360.5 29q-133 0 -262 -12q12 61 48.5 117.5t93.5 99.5t132 68.5t164 25.5q86 0 155 -19.5t121.5 -48.5t88 -62t53.5 -59v189h78zM426 352q0 25 -15 35t-30 10q-25 0 -37 -10
t-12 -35q0 -41 49 -41q15 0 30 10t15 31zM90 389q0 63 25.5 112.5t67 83.5t94.5 52t108 18q57 0 108.5 -15.5t90 -47.5t61.5 -80.5t23 -114.5v-323h303v565h78v-635h-533v70h82v332q0 44 -16.5 76.5t-45 53.5t-66.5 31.5t-81 10.5t-83 -12t-70.5 -35.5t-49 -57t-18.5 -76.5
v-295l164 164q-6 1 -16.5 7.5t-20.5 17t-17.5 26t-7.5 35.5q0 53 31 82t84 29q23 0 43 -8.5t35 -23.5t24 -35.5t9 -43.5q0 -18 -5.5 -33.5t-13 -26.5t-16.5 -18t-15 -8q-2 -6 -14.5 -18.5t-31.5 -30.5t-42.5 -41t-46.5 -49q-31 -28 -64 -58.5t-67 -64.5h-90v385z" />
    <glyph glyph-name=".null" 
 />
    <glyph glyph-name=".null" 
 />
    <glyph glyph-name="nonmarkingreturn" unicode="&#xd;" horiz-adv-x="791" 
 />
    <glyph glyph-name="space" unicode=" " horiz-adv-x="696" 
 />
    <glyph glyph-name="exclam" unicode="!" horiz-adv-x="885" 
d="M602 321v-321h-323v321h323zM526 497h-167l-60 909v549h287v-549z" />
    <glyph glyph-name="quotedbl" unicode="&#x22;" horiz-adv-x="1184" 
d="M893 1955v-707h-209v707h209zM504 1955v-707h-209v707h209z" />
    <glyph glyph-name="numbersign" unicode="#" horiz-adv-x="1544" 
d="M590 778h332l53 402h-324zM86 573v205h299l53 402h-278v200h307l82 574h205l-82 -574h332l77 574h209l-78 -574h246v-200h-270l-58 -402h246v-205h-278l-78 -573h-213l82 573h-324l-82 -573h-209l78 573h-266z" />
    <glyph glyph-name="dollar" unicode="$" horiz-adv-x="1544" 
d="M325 568q1 -87 31.5 -156t80.5 -117.5t116 -75.5t139 -30v700q-135 38 -242 82t-181.5 105.5t-114 145t-39.5 200.5q0 123 45.5 226t123.5 178.5t183 121.5t225 55v180h168v-180q111 -17 197 -56.5t150.5 -105.5t108 -160.5t69.5 -220.5h-254q-21 72 -44.5 125.5
t-55 90.5t-73.5 57.5t-98 28.5v-657l160 -46q36 -10 82.5 -28t95.5 -46t96.5 -67t84.5 -92t60 -120.5t23 -152.5q0 -128 -45 -234.5t-125.5 -184t-191 -123t-240.5 -51.5v-228h-168v228q-140 13 -254.5 59t-196 122.5t-126 183.5t-44.5 243h254zM860 180q70 4 131.5 27
t107 65.5t71.5 105.5t26 147q0 75 -25 127t-69.5 89t-106 62t-135.5 46v-669zM385 1450q0 -71 23 -118.5t64.5 -80.5t97.5 -55.5t122 -41.5v612q-65 -7 -121 -30t-97 -62t-65 -95t-24 -129z" />
    <glyph glyph-name="percent" unicode="%" horiz-adv-x="2777" 
d="M471 1406q0 -40 3 -84.5t12 -87.5t24.5 -82.5t41 -69.5t62 -47.5t86.5 -17.5q75 0 121 37.5t71 95.5t33.5 126t8.5 130q0 39 -2.5 83t-10.5 87t-23.5 83t-41 70t-62.5 48t-89 18q-49 0 -85.5 -18t-62.5 -48t-43 -70t-26.5 -83t-13 -87t-3.5 -83zM250 1402q0 110 22 210.5
t74.5 177.5t140 123t218.5 46q132 0 219.5 -44t139.5 -119.5t73.5 -176t21.5 -213.5q0 -107 -25 -206.5t-79.5 -176.5t-140.5 -123.5t-209 -46.5q-126 0 -213 42.5t-140.5 116.5t-77.5 174t-24 216zM1843 533q0 -38 3 -81.5t11.5 -86t24.5 -82t41 -69t60.5 -47.5t84.5 -18
q77 0 123.5 37t72 94t34 125.5t8.5 131.5q0 39 -3 83t-12 87t-24.5 82.5t-41 69.5t-62 48t-86.5 18t-87 -18t-63 -48t-42.5 -70t-25.5 -83.5t-12.5 -88t-3.5 -84.5zM1618 529q0 111 23 212.5t76 178.5t141 123t219 46q133 0 221 -44t139.5 -119.5t72.5 -176t21 -212.5
q0 -108 -25 -208t-79.5 -176.5t-140.5 -122.5t-209 -46q-126 0 -213.5 43t-142 117t-79 173t-24.5 212zM2138 1995l-1232 -2035h-262l1236 2035h258z" />
    <glyph glyph-name="ampersand" unicode="&#x26;" horiz-adv-x="1749" 
d="M760 1222q42 29 86.5 63.5t81 77.5t59 95t21.5 117q-1 44 -15.5 81.5t-43 64.5t-72 42t-101.5 15q-45 0 -84 -14t-67.5 -41t-45 -66.5t-16.5 -91.5q0 -45 18 -88.5t46.5 -86.5t63.5 -85t69 -83zM1274 246q-51 -71 -114.5 -123.5t-135.5 -87t-151 -51.5t-160 -17
q-135 0 -233.5 29t-167.5 76.5t-111.5 106.5t-66 119.5t-32 115.5t-8.5 94q0 120 36.5 208.5t99.5 158.5t147.5 125.5t179.5 109.5q-45 57 -86.5 110t-73.5 107.5t-51.5 114.5t-19.5 131q0 81 27.5 154t81.5 128.5t135 89.5t188 37q94 3 179.5 -18.5t151.5 -69t106 -122
t42 -177.5q2 -81 -25.5 -156.5t-75.5 -143.5t-113.5 -126.5t-138.5 -105.5l368 -442q16 32 26 69.5t16.5 73.5t10 68t5.5 52h225q-8 -80 -18.5 -141t-25.5 -111t-35 -94.5t-47 -91.5l385 -446h-311zM684 958q-68 -40 -129.5 -82t-108 -93.5t-74.5 -117.5t-28 -153
q0 -77 32 -139t84.5 -106t120.5 -67.5t140 -23.5q136 0 239.5 63t178.5 175z" />
    <glyph glyph-name="quotesingle" unicode="'" horiz-adv-x="770" 
d="M489 1955v-707h-209v707h209z" />
    <glyph glyph-name="parenleft" unicode="(" horiz-adv-x="721" 
d="M561 -545q-98 152 -179.5 306.5t-140 315t-90.5 329t-32 348.5q0 167 27.5 336t83 334t138 322.5t193.5 301.5h201q-101 -163 -172.5 -321.5t-117 -318t-66.5 -322t-21 -332.5q0 -171 21 -333.5t66.5 -322t117 -319t172.5 -324.5h-201z" />
    <glyph glyph-name="parenright" unicode=")" horiz-adv-x="721" 
d="M-37 -545q100 155 170 312t114 317.5t64.5 324t20.5 332.5q0 172 -20.5 335.5t-65.5 324t-116.5 321t-174.5 326.5h201q103 -157 184 -312.5t137.5 -316t86.5 -329t30 -349.5q0 -166 -27 -334t-81.5 -332t-136.5 -320.5t-193 -299.5h-193z" />
    <glyph glyph-name="asterisk" unicode="*" horiz-adv-x="975" 
d="M860 1760l52 -147l-289 -107l180 -254l-131 -90l-185 262l-176 -262l-143 90l180 254l-288 102l51 152l295 -107v308h163v-308z" />
    <glyph glyph-name="plus" unicode="+" horiz-adv-x="1667" 
d="M1542 860v-217h-598v-606h-217v606h-602v217h602v606h217v-606h598z" />
    <glyph glyph-name="comma" unicode="," horiz-adv-x="770" 
d="M549 328v-291q0 -82 -18.5 -158t-58.5 -139.5t-102 -110t-149 -69.5v174q47 13 79.5 44.5t52 69.5t28 78.5t8.5 73.5h-168v328h328z" />
    <glyph glyph-name="hyphen" unicode="-" horiz-adv-x="1286" 
d="M1155 870v-237h-1024v237h1024z" />
    <glyph glyph-name="period" unicode="." horiz-adv-x="770" 
d="M549 328v-328h-328v328h328z" />
    <glyph glyph-name="slash" unicode="/" horiz-adv-x="926" 
d="M967 1998l-807 -2039h-217l799 2039h225z" />
    <glyph glyph-name="zero" unicode="0" horiz-adv-x="1556" 
d="M778 201q97 0 164.5 37.5t111.5 100t68.5 143.5t36 167.5t14 172t2.5 157.5t-2.5 157.5t-14 172t-36 167.5t-68.5 143.5t-111.5 100t-164.5 37.5t-164.5 -37.5t-111.5 -100t-68.5 -143.5t-36 -167.5t-14 -172t-2.5 -157.5t2.5 -157.5t14 -172t36 -167.5t68.5 -143.5
t111.5 -100t164.5 -37.5zM778 -29q-112 0 -200 25t-156 70t-117 106.5t-83 135t-55.5 156.5t-33 169.5t-15.5 174t-4 171.5q0 111 7.5 229.5t31.5 230.5t68.5 211.5t118.5 174.5t181 118.5t257 43.5q149 0 256.5 -43.5t181.5 -118.5t118.5 -174.5t68.5 -211.5t31.5 -230.5
t7.5 -229.5t-7.5 -229.5t-31.5 -230.5t-68.5 -211.5t-118.5 -174.5t-181.5 -118.5t-256.5 -43.5z" />
    <glyph glyph-name="one" unicode="1" horiz-adv-x="1556" 
d="M231 1569q106 6 197 20t162.5 54t121 113t72.5 198h217v-1954h-250v1458q-49 -34 -104.5 -56t-119.5 -35.5t-137.5 -20t-158.5 -7.5v230z" />
    <glyph glyph-name="two" unicode="2" horiz-adv-x="1556" 
d="M141 1262q-12 153 28.5 284t126 227t211 150.5t281.5 54.5q129 0 242.5 -38.5t198 -112t133.5 -181t49 -245.5q0 -90 -21 -166.5t-56.5 -141t-83.5 -119t-102.5 -100.5t-112.5 -85.5t-113 -73.5q-84 -52 -169.5 -106t-158.5 -113.5t-126 -125t-72 -141.5h999v-229h-1303
q7 111 33.5 203t67 168.5t93.5 140t113.5 118t126.5 102t133 91.5q85 56 154 103.5t122 91t91 86t62.5 88t36 97.5t11.5 116q0 80 -28 143.5t-76.5 108t-114.5 68.5t-141 24q-100 0 -173 -41.5t-120 -110t-68 -156t-16 -179.5h-258z" />
    <glyph glyph-name="three" unicode="3" horiz-adv-x="1556" 
d="M642 1122h81q72 0 137 20t114.5 59t79 97.5t29.5 135.5q0 78 -25.5 137.5t-70.5 100t-107.5 61t-136.5 20.5q-94 0 -160.5 -36t-109 -97t-62.5 -140t-20 -165h-262q4 143 45.5 264.5t118.5 210t190 138.5t260 50q130 0 241 -34t192 -102t127 -171t46 -241q0 -65 -19 -123
t-52.5 -108t-80 -91t-101.5 -72q86 -21 149 -64.5t104.5 -105.5t61.5 -140t20 -169q0 -94 -24 -175t-66 -147.5t-100 -118.5t-125 -87q-38 -20 -82 -33t-91.5 -20.5t-97 -10t-98.5 -2.5q-150 0 -272 42.5t-208 124.5t-132.5 203t-46.5 277h262q1 -94 27 -173t76 -136
t123.5 -89t170.5 -32q92 0 168.5 25.5t131 73.5t84.5 117t30 157q0 91 -30.5 159t-84.5 114t-128.5 69t-161.5 23q-32 0 -60 -2t-54 -4v210z" />
    <glyph glyph-name="four" unicode="4" horiz-adv-x="1556" 
d="M956 1557l-624 -881h624v881zM1472 676v-230h-266v-446h-250v446h-864v242l901 1286h213v-1298h266z" />
    <glyph glyph-name="five" unicode="5" horiz-adv-x="1556" 
d="M533 1730l-85 -538q78 67 167.5 95t185.5 28q135 0 252.5 -42.5t204 -127t136.5 -212t50 -298.5q0 -85 -19 -167t-57.5 -155.5t-96.5 -135t-135.5 -106.5t-174.5 -70.5t-214 -25.5q-128 0 -241 37.5t-199 110.5t-138 181t-57 249h259q7 -77 37.5 -142t81 -112.5
t120.5 -74.5t158 -27q84 0 158 28.5t129 85.5t86.5 143t31.5 201q0 95 -31 175.5t-87.5 139t-135.5 91.5t-176 33q-120 0 -206 -47.5t-146 -129.5l-229 1l174 1037h991v-225h-794z" />
    <glyph glyph-name="six" unicode="6" horiz-adv-x="1556" 
d="M1150 1466q-8 68 -39 122t-76.5 91.5t-103.5 57.5t-120 20q-94 0 -163 -31.5t-118 -85t-80 -124t-49.5 -149t-27 -160.5t-11.5 -158q40 55 92.5 99t114 74.5t130.5 47t143 16.5q146 0 259.5 -50.5t191.5 -138t118.5 -205.5t40.5 -253q0 -75 -14 -153.5t-45.5 -153.5
t-82 -141t-124.5 -116t-172.5 -79t-225.5 -29q-148 0 -256.5 42t-184.5 113.5t-123.5 166.5t-74 201.5t-36 217t-9.5 214.5q0 137 14 269t47 250.5t87 218.5t134.5 172.5t189.5 113.5t251 41q117 0 216.5 -34t175.5 -100.5t124 -163.5t60 -223h-253zM801 1057
q-97 0 -172 -34t-126 -92.5t-77.5 -138t-26.5 -169.5q0 -92 27 -171t78.5 -136.5t126.5 -90t170 -32.5q93 0 165.5 33.5t122 91.5t75.5 135.5t26 164.5q0 91 -24 171t-72.5 139.5t-121.5 94t-171 34.5z" />
    <glyph glyph-name="seven" unicode="7" horiz-adv-x="1556" 
d="M1427 1741q-103 -105 -199 -227.5t-179 -258.5t-151.5 -284t-117 -306.5t-75.5 -325.5t-27 -339h-287q0 213 54.5 433t153.5 438.5t236.5 430.5t303.5 410h-1002v242h1290v-213v0z" />
    <glyph glyph-name="eight" unicode="8" horiz-adv-x="1556" 
d="M450 1462q0 -75 27 -132.5t73 -96t107.5 -58.5t130.5 -20q68 0 124 21t96.5 60.5t63 96.5t22.5 129q0 70 -22.5 125t-63.5 92.5t-99 57.5t-129 20q-65 0 -124.5 -19t-105 -56.5t-73 -92.5t-27.5 -127zM188 1475q0 122 47 217t126 160.5t183.5 100t219.5 34.5
q161 0 274.5 -45t185 -118t104 -164.5t32.5 -184.5q0 -134 -63 -239t-181 -167q78 -32 142 -80t109.5 -110.5t70 -139t24.5 -166.5q0 -146 -54.5 -259t-147 -190t-215 -117t-257.5 -40q-143 0 -268.5 38.5t-219.5 114.5t-148 189.5t-54 263.5q0 181 86.5 305.5t247.5 186.5
q-59 28 -104 71t-76.5 97t-47.5 115.5t-16 126.5zM365 565q0 -89 32 -158t89 -116.5t134.5 -72.5t167.5 -25q88 0 162 27.5t128 77.5t84 119t30 152q0 81 -33 148t-89.5 115t-130.5 75t-155 27q-84 0 -160 -24t-133.5 -70.5t-91.5 -115.5t-34 -159z" />
    <glyph glyph-name="nine" unicode="9" horiz-adv-x="1556" 
d="M390 488q8 -68 39 -122t76.5 -91.5t103.5 -57.5t120 -20q94 0 163 31.5t118 85t80 124t49.5 149t27 160.5t11.5 158q-40 -55 -92.5 -99t-114 -74.5t-130.5 -47t-143 -16.5q-146 0 -259.5 50.5t-191.5 138t-118.5 205.5t-40.5 253q0 75 14 153.5t45.5 153.5t82 141
t124.5 116t172.5 79t225.5 29q148 0 256.5 -42t184.5 -113.5t123.5 -166.5t74 -201.5t36 -217.5t9.5 -214q0 -137 -14 -269t-47 -250.5t-87 -218.5t-134.5 -172.5t-189.5 -113.5t-251 -41q-117 0 -217 34t-175.5 100.5t-123.5 163.5t-60 223h253zM739 897q97 0 172 34
t126 92.5t77.5 138t26.5 169.5q0 92 -27 171t-78.5 136.5t-126.5 90t-170 32.5q-93 0 -165.5 -33.5t-122 -91.5t-75.5 -135.5t-26 -164.5q0 -91 24 -171t72.5 -139.5t121.5 -94t171 -34.5z" />
    <glyph glyph-name="colon" unicode=":" horiz-adv-x="770" 
d="M221 1126v328h328v-328h-328zM549 328v-328h-328v328h328z" />
    <glyph glyph-name="semicolon" unicode=";" horiz-adv-x="770" 
d="M221 1126v328h328v-328h-328zM549 328v-291q0 -82 -18.5 -158t-58.5 -139.5t-102 -110t-149 -69.5v174q47 13 79.5 44.5t52 69.5t28 78.5t8.5 73.5h-168v328h328z" />
    <glyph glyph-name="less" unicode="&#x3c;" horiz-adv-x="1667" 
d="M381 758l1167 -525v-213l-1433 639v201l1433 643v-217z" />
    <glyph glyph-name="equal" unicode="=" horiz-adv-x="1667" 
d="M123 926v209h1417v-209h-1417zM123 369v209h1417v-209h-1417z" />
    <glyph glyph-name="greater" unicode="&#x3e;" horiz-adv-x="1667" 
d="M115 1286v217l1433 -643v-201l-1433 -639v213l1167 525z" />
    <glyph glyph-name="question" unicode="?" horiz-adv-x="1544" 
d="M922 321v-321h-324v321h324zM153 1324q-5 149 37.5 274t124 215t198.5 140t261 50q132 0 241.5 -37.5t187.5 -108.5t121.5 -173.5t43.5 -233.5q0 -86 -30.5 -157.5t-74.5 -130.5t-95 -105.5t-91 -82.5q-43 -41 -77 -80.5t-58 -84.5t-36.5 -99t-12.5 -125v-133h-254v157
q3 82 24.5 150t55 124t75.5 102.5t86 86.5q36 32 77 72.5t75.5 90t55.5 109t18 130.5q-6 72 -28.5 130t-63 98.5t-100 62.5t-140.5 22q-100 0 -169.5 -34t-113.5 -95t-64 -146t-20 -188h-254z" />
    <glyph glyph-name="at" unicode="@" horiz-adv-x="2220" 
d="M1491 733q-4 -12 -11 -31.5t-13 -42.5t-9 -45.5t1 -41.5t16 -30.5t37 -11.5q41 0 85 25.5t87 70t81.5 104t67.5 127.5t46 140.5t17 143.5q0 108 -28.5 202t-80 171t-121.5 137t-152.5 100.5t-175 62t-187.5 21.5q-119 0 -227 -31t-201 -87.5t-168.5 -135.5t-128.5 -175.5
t-82 -207t-29 -229.5t30.5 -228t85.5 -203.5t132.5 -171.5t172 -131.5t202.5 -84.5t225 -30q198 0 361 71.5t279 210.5h201q-64 -103 -153 -185t-197 -139t-233 -87.5t-262 -30.5q-148 0 -283 35.5t-252 100.5t-212.5 157.5t-163.5 206.5t-105 247t-37 279q0 142 37.5 272.5
t106 243.5t164 205.5t211 158t248 101.5t274.5 36q129 0 250 -28.5t227 -81t193.5 -128t150.5 -169.5t98 -204.5t35 -233.5q0 -117 -30.5 -222t-81.5 -193.5t-118 -159t-141 -120t-149.5 -76t-142.5 -26.5q-36 0 -64 10.5t-47.5 34t-30 61.5t-10.5 93q-31 -33 -71 -70
t-90 -67.5t-110.5 -50.5t-130.5 -20q-80 0 -149 38t-120.5 102.5t-81 148t-29.5 175.5q0 95 21.5 188.5t62 177.5t99 156t132 124.5t161.5 82.5t187 30q49 0 95.5 -13t87.5 -41t75 -71.5t57 -103.5l50 176h197zM1167 1374q-66 0 -123.5 -25.5t-105.5 -68.5t-86 -100
t-64.5 -119.5t-40.5 -127.5t-14 -124q0 -54 16 -100.5t46 -80t72.5 -53t95.5 -19.5q57 0 110.5 27t99.5 72t84.5 103.5t65.5 122t42 127t15 118.5q0 48 -17.5 92.5t-47 79t-68 55.5t-80.5 21z" />
    <glyph glyph-name="A" unicode="A" horiz-adv-x="1819" 
d="M910 1666l-329 -873h654zM495 565l-216 -565h-292l765 1955h312l765 -1955h-292l-216 565h-826z" />
    <glyph glyph-name="B" unicode="B" horiz-adv-x="1902" 
d="M958 1102q132 0 215 30t130 77.5t64 107.5t17 120q0 78 -25 131.5t-76.5 86.5t-129.5 48t-184 15h-463v-616h452zM952 1955q87 0 173 -8.5t164.5 -30.5t146 -59.5t117 -95t78 -137.5t28.5 -187q0 -65 -18.5 -128t-55.5 -118.5t-91.5 -99t-127.5 -69.5
q111 -28 187.5 -72.5t124.5 -104t69 -133t21 -158.5q0 -110 -34 -210t-112.5 -176.5t-206.5 -122t-317 -45.5h-871v1955h725zM1072 233q97 0 174 19t131 59t83 100t29 143q0 162 -125 241.5t-364 79.5h-494v-642h566z" />
    <glyph glyph-name="C" unicode="C" horiz-adv-x="2007" 
d="M1561 1298q0 52 -15.5 107t-46 107.5t-75 99t-101 82t-124.5 56t-146 20.5q-114 0 -206 -30t-163.5 -83.5t-124 -126.5t-86 -160t-50 -183.5t-16.5 -196.5q0 -164 40.5 -309.5t122 -255t203.5 -173t284 -63.5q111 0 204.5 44t162.5 117.5t110 168t48 196.5h275
q0 -86 -25.5 -175t-73.5 -173t-118 -158t-158 -129.5t-192.5 -87.5t-222.5 -32q-231 0 -406.5 76.5t-293.5 211.5t-178 319.5t-60 401.5q0 137 26.5 267t78.5 245t130 211t181 165t231 107.5t281 38.5q122 0 228.5 -29t194 -79.5t155.5 -118.5t115 -146.5t71.5 -163.5
t24.5 -168h-285v0z" />
    <glyph glyph-name="D" unicode="D" horiz-adv-x="1958" 
d="M877 233q33 0 79.5 1.5t100 11t111 30t112.5 58t104 95t86.5 141t59 196t21.5 260.5q0 171 -34.5 300.5t-110.5 216.5t-195.5 131t-289.5 44h-415v-1485h371zM886 1955q230 0 405.5 -57.5t294 -173t179 -290t60.5 -408.5q0 -246 -53 -437.5t-167 -322t-293 -198.5
t-431 -68h-654v1955h659z" />
    <glyph glyph-name="E" unicode="E" horiz-adv-x="1696" 
d="M1589 1955v-237h-1093v-586h975v-237h-975v-662h1097v-233h-1376v1955h1372z" />
    <glyph glyph-name="F" unicode="F" horiz-adv-x="1593" 
d="M1510 1955v-237h-1014v-586h873v-237h-873v-895h-279v1955h1293z" />
    <glyph glyph-name="G" unicode="G" horiz-adv-x="2088" 
d="M1057 189q75 0 144.5 23t129.5 63.5t109.5 97.5t84.5 125t54.5 145t19.5 158h-532v237h810v-1038h-158l-83 271q-29 -40 -77 -93.5t-118 -102t-163 -82t-211 -33.5q-231 0 -406.5 76.5t-293.5 211.5t-178 319.5t-60 401.5q0 137 27 267t80.5 245t132.5 211t183 165
t233 107.5t282 38.5q122 0 230.5 -28t199.5 -77t163 -114.5t122.5 -141.5t77 -157.5t26.5 -161.5h-285q0 47 -18 99t-51.5 101.5t-82 94t-108 78.5t-130 54t-148.5 20q-114 0 -206.5 -30t-165.5 -83.5t-126.5 -126.5t-88.5 -160t-52 -183.5t-17 -196.5q0 -164 40.5 -309.5
t122 -255t203.5 -173t284 -63.5z" />
    <glyph glyph-name="H" unicode="H" horiz-adv-x="2007" 
d="M496 1955v-823h1015v823h279v-1955h-279v895h-1015v-895h-279v1955h279z" />
    <glyph glyph-name="I" unicode="I" horiz-adv-x="770" 
d="M528 1955v-1955h-286v1955h286z" />
    <glyph glyph-name="J" unicode="J" horiz-adv-x="1442" 
d="M1225 529q0 -74 -12 -145t-39 -134.5t-71.5 -116.5t-109.5 -91.5t-152.5 -60t-201.5 -21.5q-134 0 -240 34t-179.5 105t-113 180t-39.5 258v70h287v-66q0 -87 20.5 -153t59 -111t92.5 -67.5t121 -22.5q76 0 132.5 24t93.5 69t55 108t18 141v1426h279v-1426z" />
    <glyph glyph-name="K" unicode="K" horiz-adv-x="1851" 
d="M496 1955v-937l983 937h356l-811 -753l844 -1202h-357l-682 1019l-333 -310v-709h-279v1955h279z" />
    <glyph glyph-name="L" unicode="L" horiz-adv-x="1488" 
d="M496 1955v-1722h962v-233h-1241v1955h279z" />
    <glyph glyph-name="M" unicode="M" horiz-adv-x="2408" 
d="M564 1955l639 -1603l640 1603h347v-1955h-279v1544l-614 -1544h-187l-614 1544v-1544h-279v1955h347z" />
    <glyph glyph-name="N" unicode="N" horiz-adv-x="2015" 
d="M1485 0l-989 1578v-1578h-279v1955h300l1003 -1590v1590h278v-1955h-313z" />
    <glyph glyph-name="O" unicode="O" horiz-adv-x="2114" 
d="M395 977q0 -97 16.5 -193t51 -183.5t87.5 -163t126 -130.5t167 -86.5t210 -31.5q118 0 213.5 31.5t169.5 86.5t127.5 130.5t88 163t51 183.5t16.5 193t-16.5 193.5t-51 185t-88 164t-127.5 131.5t-169.5 87.5t-213.5 31.5q-116 0 -210 -31.5t-167 -87.5t-126 -131.5
t-87.5 -164t-51 -185t-16.5 -193.5zM116 977q0 134 26.5 262.5t79.5 242.5t132 209.5t183 165t233 108t283 38.5q155 0 285 -38.5t235 -108t184.5 -165t132.5 -209.5t80 -242.5t27 -262.5t-27 -261.5t-80 -240.5t-132.5 -207.5t-184.5 -163t-235 -106.5t-285 -38
q-154 0 -283 38t-233 106.5t-183 163t-132 207.5t-79.5 240.5t-26.5 261.5z" />
    <glyph glyph-name="P" unicode="P" horiz-adv-x="1802" 
d="M1007 1030q111 -2 188.5 23t127 71t72 109.5t22.5 140.5q0 76 -22.5 139.5t-72 109t-127 70.5t-188.5 25h-511v-688h511zM1077 1955q154 0 269 -43t192 -120.5t115.5 -184t38.5 -233.5q0 -126 -38.5 -232t-115.5 -183.5t-192 -120.5t-269 -41h-581v-797h-279v1955h860z
" />
    <glyph glyph-name="Q" unicode="Q" horiz-adv-x="2114" 
d="M116 977q0 134 26.5 262.5t79.5 242.5t132 209.5t183 165t233 108t283 38.5q155 0 285 -38.5t235 -108t184.5 -165t132.5 -209.5t80 -242.5t27 -262.5q0 -124 -23 -243t-69 -226t-114.5 -199t-158.5 -162l288 -335h-329l-181 210q-80 -30 -168.5 -46t-188.5 -16
q-154 0 -283 38t-233 106.5t-183 163t-132 207.5t-79.5 240.5t-26.5 261.5zM1277 560l193 -225q65 57 112 130t77.5 156.5t45 174t14.5 181.5q0 97 -16.5 193.5t-51 185t-88 164t-127.5 131.5t-169.5 87.5t-213.5 31.5q-116 0 -210 -31.5t-167 -87.5t-126 -131.5t-87.5 -164
t-51 -185t-16.5 -193.5t16.5 -193t51 -183.5t87.5 -163t126 -130.5t167 -86.5t210 -31.5q107 0 192 25l-298 346h330z" />
    <glyph glyph-name="R" unicode="R" horiz-adv-x="1905" 
d="M1143 1955q144 0 257.5 -35t192 -102t119.5 -163t41 -217q0 -87 -25.5 -168.5t-74 -149t-119 -117t-160.5 -73.5q58 -22 100 -62t70.5 -85t45 -90t25.5 -76l80 -292q15 -53 28 -98t28.5 -84t35 -74.5t48.5 -68.5h-303q-14 17 -27 48t-26 69t-25.5 81t-24.5 85l-85 292
q-15 51 -35.5 97t-58.5 81t-98.5 55.5t-153.5 20.5h-502v-829h-279v1955h926zM1024 1057q87 0 168.5 15.5t144.5 55t100.5 106t37.5 168.5q0 70 -20.5 128.5t-63.5 100t-108.5 64.5t-156.5 23h-630v-661h528z" />
    <glyph glyph-name="S" unicode="S" horiz-adv-x="1802" 
d="M1358 1354q-22 211 -142.5 313.5t-323.5 102.5q-80 0 -157 -16t-138 -54t-98 -100t-37 -154q0 -77 41 -129.5t110.5 -89.5t161.5 -61.5t195 -45.5q88 -18 176 -38t169 -48t150.5 -67.5t120.5 -98t80.5 -138.5t29.5 -189q0 -106 -32 -190.5t-87 -149t-130 -110.5t-161 -75
t-179 -42.5t-185 -13.5q-169 0 -317.5 41t-259.5 127.5t-175 220t-64 318.5h263q0 -125 45 -215t122 -148.5t178.5 -86.5t215.5 -28q59 0 118.5 6t114 21.5t102 40.5t82 63.5t54.5 91t20 121.5q0 90 -39 146t-109 92t-166.5 60t-210.5 51q-85 20 -171 41.5t-165.5 50
t-148 67t-119 92t-79.5 125.5t-29 168q0 99 28 180.5t77 145.5t117 111.5t148 78.5t169.5 46t181.5 15q153 0 281.5 -40t223 -121t150.5 -203t64 -285h-266v0z" />
    <glyph glyph-name="T" unicode="T" horiz-adv-x="1537" 
d="M8 1718v237h1521v-237h-625v-1718h-279v1718h-617z" />
    <glyph glyph-name="U" unicode="U" horiz-adv-x="2032" 
d="M1014 -40q-179 0 -325.5 44t-251.5 135.5t-162.5 233t-57.5 336.5v1246h279v-1246q0 -131 36.5 -228.5t104 -162t163 -97t214.5 -32.5q118 0 214.5 32.5t165 97t105.5 162t37 228.5v1246h279v-1246q0 -195 -58 -336.5t-164 -233t-253.5 -135.5t-325.5 -44z" />
    <glyph glyph-name="V" unicode="V" horiz-adv-x="1696" 
d="M692 0l-696 1955h303l557 -1655l557 1655h295l-704 -1955h-312z" />
    <glyph glyph-name="W" unicode="W" horiz-adv-x="2572" 
d="M841 0h-286l-522 1955h286l400 -1576l416 1576h286l415 -1576l400 1576h286l-522 -1955h-286l-436 1592z" />
    <glyph glyph-name="X" unicode="X" horiz-adv-x="1696" 
d="M29 1955h336l483 -753l504 753h305l-655 -950l696 -1005h-334l-520 789l-537 -789h-315l684 1005z" />
    <glyph glyph-name="Y" unicode="Y" horiz-adv-x="1787" 
d="M1034 0h-282v801l-752 1154h322l571 -944l572 944h322l-752 -1154z" />
    <glyph glyph-name="Z" unicode="Z" horiz-adv-x="1696" 
d="M1270 1718h-1114v237h1450v-223l-1200 -1499h1226v-233h-1575v218z" />
    <glyph glyph-name="bracketleft" unicode="[" horiz-adv-x="729" 
d="M434 1843v-2183h295v-205h-541v2593h541v-205h-295z" />
    <glyph glyph-name="backslash" unicode="\" horiz-adv-x="926" 
d="M762 -41l-804 2038h217l812 -2038h-225z" />
    <glyph glyph-name="bracketright" unicode="]" horiz-adv-x="729" 
d="M295 -340v2183h-295v205h532v-2593h-532v205h295z" />
    <glyph glyph-name="asciicircum" unicode="^" horiz-adv-x="1667" 
d="M925 1956l624 -1221h-221l-497 987l-497 -987h-221l624 1221h189h-1z" />
    <glyph glyph-name="underscore" unicode="_" horiz-adv-x="1405" 
d="M1405 -188v-160h-1405v160h1405z" />
    <glyph glyph-name="grave" unicode="`" horiz-adv-x="614" 
d="M263 2014l250 -414h-197l-373 414h320z" />
    <glyph glyph-name="a" unicode="a" horiz-adv-x="1491" 
d="M631 193q114 0 194 31t130.5 77.5t74 102t23.5 104.5v196q-41 3 -108 5.5t-144 -3.5t-155.5 -24t-142 -53.5t-103.5 -93t-40 -142.5q0 -57 22 -95t59.5 -61.5t86.5 -33.5t103 -10zM1101 0q-14 39 -20.5 83.5t-11.5 109.5q-42 -57 -96.5 -99.5t-118.5 -70.5t-134 -42
t-142 -14q-99 0 -186 24.5t-152.5 76t-103.5 130.5t-38 187q0 106 34.5 184t92 134t132.5 92.5t157 58t165 31t156 11.5t130 -0.5t88 -4.5v121q0 54 -16 93.5t-42.5 67.5t-61 45t-71 27t-73 13.5t-66.5 3.5q-65 0 -123 -11.5t-104 -39t-76 -74.5t-37 -118h-254
q10 129 63 218t136.5 144.5t190.5 80.5t225 25q60 0 125 -6.5t127.5 -25t119 -51t99 -85t67.5 -127.5t25 -177v-720q0 -38 5 -80t13.5 -82t19.5 -75t23 -58h-267z" />
    <glyph glyph-name="b" unicode="b" horiz-adv-x="1647" 
d="M430 1999v-730q74 111 189 164t258 53q110 0 202.5 -29t166.5 -80.5t130 -122.5t93.5 -156t56 -180t18.5 -194q0 -157 -41.5 -295t-124 -241t-206 -162.5t-287.5 -59.5q-53 0 -114 9.5t-122.5 33.5t-118.5 64t-100 102v-176h-254v2000h254zM1274 741q0 97 -24 190.5
t-76 167t-133.5 118.5t-196.5 45q-117 0 -198 -47t-132 -123t-73.5 -171t-22.5 -192q0 -104 23.5 -201t76 -171.5t137 -119t205.5 -44.5q118 0 197.5 46.5t127.5 123t68.5 175.5t20.5 203z" />
    <glyph glyph-name="c" unicode="c" horiz-adv-x="1491" 
d="M1143 975q0 45 -21 95.5t-64 93t-107.5 70.5t-151.5 28q-126 0 -210.5 -46t-135 -123t-72 -177t-21.5 -207q0 -66 10 -129.5t31 -121t53.5 -106t78 -84t104.5 -55.5t133 -20q94 0 164.5 24t118 66t72 98t26.5 120h262q-11 -124 -60 -223t-131.5 -168t-196.5 -106
t-255 -37q-167 0 -293 55.5t-210 154.5t-126.5 235t-42.5 297t41 303t125 247.5t212 166.5t302 61q133 0 247 -33t197.5 -97.5t131 -160t47.5 -221.5h-258v0z" />
    <glyph glyph-name="d" unicode="d" horiz-adv-x="1642" 
d="M1466 1999v-1999h-254v176q-43 -62 -100 -102t-118.5 -64t-123 -33.5t-113.5 -9.5q-164 0 -287.5 59.5t-206 162.5t-124 241t-41.5 295q0 99 18.5 194t56 180t93.5 156t130 122.5t166 80.5t203 29q143 0 258 -53t189 -164v729h254zM368 741q0 -70 8.5 -137.5t28.5 -128.5
t51.5 -112.5t77.5 -89t107.5 -59t140.5 -21.5q121 0 205.5 44.5t137 119t76 171.5t23.5 201q0 97 -22.5 192t-73.5 171t-132 123t-198 47q-115 0 -196.5 -45t-133.5 -118.5t-76 -167t-24 -190.5z" />
    <glyph glyph-name="e" unicode="e" horiz-adv-x="1491" 
d="M1410 448q-21 -109 -75 -197.5t-134.5 -151.5t-184.5 -97.5t-225 -34.5q-174 0 -304 57t-216.5 159t-129.5 242.5t-43 307.5q0 163 49 301t138.5 238.5t214 157.5t274.5 57q131 0 231 -38t173.5 -102.5t123 -148.5t78.5 -177t40.5 -188.5t9.5 -181.5h-1070
q0 -94 26.5 -177t81 -145.5t137 -99t194.5 -36.5q67 0 125.5 18t105 51t80.5 80t52 106h248zM762 1262q-89 0 -161.5 -31.5t-124.5 -86.5t-82.5 -128t-34.5 -157h805q-5 85 -36.5 159t-85 128t-125 85t-155.5 31z" />
    <glyph glyph-name="f" unicode="f" horiz-adv-x="896" 
d="M33 1225v229h237v175q0 88 23.5 158.5t71.5 120t120.5 76t170.5 26.5q18 0 46.5 -2t60 -7t61.5 -14t52 -24v-216q-20 10 -43.5 17.5t-47.5 12t-47.5 6.5t-42.5 2q-93 0 -132 -40.5t-39 -126.5v-164h319v-229h-319v-1225h-254v1225h-237z" />
    <glyph glyph-name="g" unicode="g" horiz-adv-x="1597" 
d="M1421 131q0 -185 -50 -320t-139.5 -223t-214 -131t-272.5 -43q-65 0 -134 12t-134 36.5t-123 61t-102 85.5t-70.5 111t-29.5 137h254q4 -63 39.5 -107.5t88 -72.5t114 -41t118.5 -13q102 0 180 38.5t131 109.5t80 171.5t27 225.5v77q-32 -60 -77.5 -105.5t-100 -76.5
t-117 -47t-128.5 -16q-161 0 -285 57t-208 155t-127 229t-43 280q0 90 15 181.5t48 177t86 159.5t128 129.5t174 87t225 31.5q54 0 113 -15t115.5 -44t106.5 -70.5t85 -95.5v192h227v-1323zM774 221q117 0 197.5 47t130.5 123t72 172t22 194q0 92 -23.5 182.5t-73.5 162
t-128 116t-187 44.5q-116 0 -196.5 -42t-131 -113.5t-73.5 -165t-23 -196.5q0 -63 10 -126.5t31 -122t54 -108.5t79 -87.5t105.5 -58.5t134.5 -21z" />
    <glyph glyph-name="h" unicode="h" horiz-adv-x="1548" 
d="M430 1999v-742q32 51 84.5 93.5t114 72.5t126.5 47t122 17q146 0 241.5 -40t152 -111t79 -169t22.5 -213v-954h-254v979q0 132 -71.5 207.5t-206.5 75.5q-103 0 -180 -34.5t-128 -94t-76.5 -139.5t-25.5 -171v-823h-254v1999h254z" />
    <glyph glyph-name="i" unicode="i" horiz-adv-x="639" 
d="M193 1692v307h253v-307h-253zM451 1454v-1454h-254v1454h254z" />
    <glyph glyph-name="j" unicode="j" horiz-adv-x="638" 
d="M197 1692v307h253v-307h-253zM450 -172q0 -98 -25 -168.5t-71.5 -116t-112.5 -67t-147 -21.5q-37 0 -68 2.5t-59 5.5v218q28 -4 50 -4.5t53 -0.5q35 0 59.5 9.5t39.5 31t21.5 58t6.5 90.5v1589h253v-1626z" />
    <glyph glyph-name="k" unicode="k" horiz-adv-x="1457" 
d="M426 1999v-1163l643 618h332l-570 -526l620 -928h-301l-499 761l-225 -208v-553h-250v1999h250z" />
    <glyph glyph-name="l" unicode="l" horiz-adv-x="635" 
d="M442 1999v-1999h-249v1999h249z" />
    <glyph glyph-name="m" unicode="m" horiz-adv-x="2367" 
d="M418 1454v-211q80 124 191.5 184t262.5 60q64 0 124.5 -16.5t111.5 -49.5t91 -81t65 -111q80 127 192.5 192.5t251.5 65.5q111 0 200 -29.5t152 -87t97 -143.5t34 -200v-1027h-249v920q0 64 -10 127.5t-39 113t-82 80.5t-140 31q-84 0 -151 -31.5t-113.5 -86t-71 -127.5
t-24.5 -156v-871h-254v920q0 66 -9.5 129t-37 112.5t-77 80t-130.5 30.5q-70 0 -124.5 -22t-96 -57.5t-70.5 -79.5t-47 -88.5t-26.5 -85t-8.5 -68.5v-871h-254v1454h242z" />
    <glyph glyph-name="n" unicode="n" horiz-adv-x="1548" 
d="M418 1454l1 -237q73 126 187 198t271 72q146 0 241.5 -43t152 -118t79 -176t22.5 -216v-934h-250v959q0 66 -17.5 123t-52.5 99.5t-88 66.5t-124 24q-95 0 -171 -39.5t-129 -104.5t-81.5 -149.5t-28.5 -175.5v-803h-254v1454h242z" />
    <glyph glyph-name="o" unicode="o" horiz-adv-x="1593" 
d="M360 725q0 -132 31 -233.5t88.5 -171t138.5 -105t181 -35.5q95 0 174.5 35.5t137.5 105t90 171t32 233.5q0 127 -32 229t-90 173.5t-137.5 109.5t-174.5 38q-100 0 -181 -38t-138.5 -109.5t-88.5 -173.5t-31 -229zM98 725q0 161 41.5 302t128 245.5t218.5 164.5t313 60
q179 0 311 -60t218.5 -164.5t128.5 -245.5t42 -302q0 -158 -42 -298t-128.5 -244.5t-218.5 -165t-311 -60.5q-181 0 -313 60.5t-218.5 165t-128 244.5t-41.5 298z" />
    <glyph glyph-name="p" unicode="p" horiz-adv-x="1647" 
d="M420 1454v-190q34 54 83 95.5t108.5 70t127 43t138.5 14.5q110 0 202.5 -29t166.5 -80.5t130 -122.5t93.5 -156t56 -180t18.5 -194q0 -157 -41.5 -295t-124 -241t-206 -162.5t-287.5 -59.5q-53 0 -114 9.5t-122.5 33.5t-118.5 64t-100 102v-721h-254v1999h244zM1274 741
q0 97 -24 190.5t-76 167t-133.5 118.5t-196.5 45q-117 0 -198 -47t-132 -123t-73.5 -171t-22.5 -192q0 -104 23.5 -201t76 -171.5t137 -119t205.5 -44.5q118 0 197.5 46.5t127.5 123t68.5 175.5t20.5 203z" />
    <glyph glyph-name="q" unicode="q" horiz-adv-x="1638" 
d="M360 713q0 -98 25.5 -191.5t78.5 -166.5t135 -117.5t196 -44.5q79 0 141 21t109.5 58.5t80.5 88.5t54.5 110t31 123.5t9.5 130.5q0 70 -10.5 137t-33 126.5t-57.5 109.5t-84 86.5t-112 57t-142 20.5q-118 0 -199 -46t-130.5 -122.5t-71 -175.5t-21.5 -205zM1212 -545
l-4 721q-34 -49 -82 -88t-106 -66t-123.5 -41t-134.5 -14q-112 0 -204.5 28t-166.5 78.5t-129 121t-91.5 156t-54.5 182t-18 200.5q0 154 41 291t122.5 240t204.5 163t288 60q60 0 124 -9.5t125.5 -34.5t118 -68.5t100.5 -110.5v190h240v-1999h-250z" />
    <glyph glyph-name="r" unicode="r" horiz-adv-x="948" 
d="M414 1454v-308q28 83 78.5 147.5t119.5 108t154 65t182 20.5v-266q-137 0 -235.5 -38.5t-162 -107.5t-94 -164t-30.5 -207v-704h-250v1454h238z" />
    <glyph glyph-name="s" unicode="s" horiz-adv-x="1389" 
d="M336 467q0 -80 31 -132.5t83 -84t119.5 -44.5t139.5 -13q54 0 112 7.5t107 30t80.5 62t31.5 104.5q0 60 -28.5 99t-78 65.5t-116 43.5t-141.5 34q-64 14 -128.5 30t-125 38.5t-113.5 53.5t-92.5 74t-62 100.5t-22.5 133.5q0 111 48 190t125.5 129.5t175 74.5t195.5 24
q118 0 223.5 -25.5t184.5 -82t125 -145t47 -214.5h-254q0 61 -27 106.5t-71 75.5t-99 45t-112 15q-49 0 -101.5 -8t-95.5 -28t-70.5 -54.5t-27.5 -86.5q0 -49 30 -84.5t80 -61t115 -44t136 -33.5q130 -28 232 -62t172 -83.5t107 -119t37 -167.5q0 -90 -25 -159.5t-68 -120.5
t-102 -86.5t-126.5 -56.5t-141.5 -30.5t-148 -9.5q-124 0 -235.5 28t-195.5 88t-133.5 155t-49.5 229h254v0z" />
    <glyph glyph-name="t" unicode="t" horiz-adv-x="876" 
d="M516 382q0 -49 6.5 -81.5t21.5 -52.5t39 -28.5t59 -8.5h36t42 0.5t41 1.5t34 3v-218q-14 -2 -36.5 -3t-47.5 -2.5t-50 -2t-43 -0.5q-81 0 -147 15.5t-112.5 54t-71.5 103.5t-25 163v899h-237v229h237v375h254v-375h279v-229h-279v-843z" />
    <glyph glyph-name="u" unicode="u" horiz-adv-x="1556" 
d="M1142 0l-1 230q-37 -59 -85 -107t-106.5 -83t-126.5 -54t-143 -19q-140 0 -236.5 39.5t-156 111t-85.5 171t-26 219.5v946h262v-959q0 -80 21 -137.5t57.5 -94.5t86.5 -54.5t109 -17.5q107 0 184.5 40t127.5 100.5t74 132t24 134.5v856h258v-1454h-238z" />
    <glyph glyph-name="v" unicode="v" horiz-adv-x="1382" 
d="M315 1454l381 -1142l381 1142h276l-532 -1454h-256l-536 1454h286z" />
    <glyph glyph-name="w" unicode="w" horiz-adv-x="2096" 
d="M760 0h-270l-453 1454h277l315 -1157l303 1157h234l303 -1157l315 1157h277l-453 -1454h-270l-289 1070z" />
    <glyph glyph-name="x" unicode="x" horiz-adv-x="1442" 
d="M299 0h-283l537 762l-504 692h304l360 -521l360 521h304l-504 -692l537 -762h-283l-414 607z" />
    <glyph glyph-name="y" unicode="y" horiz-adv-x="1389" 
d="M750 -188q-40 -103 -82.5 -176t-92.5 -119.5t-110.5 -68t-136.5 -21.5q-50 0 -94.5 6.5t-81.5 21.5v234q40 -16 78 -24.5t69 -8.5q65 0 114.5 30.5t73.5 92.5l95 241l-566 1434h283l405 -1139l402 1139h266z" />
    <glyph glyph-name="z" unicode="z" horiz-adv-x="1335" 
d="M918 1235h-795v219h1126v-176l-864 -1059h852v-219h-1171v193z" />
    <glyph glyph-name="braceleft" unicode="{" horiz-adv-x="926" 
d="M721 1864q-37 0 -62 -19.5t-40.5 -51.5t-22 -74.5t-6.5 -88.5v-504q0 -80 -23 -143.5t-56 -111.5t-69.5 -79.5t-64.5 -46.5q28 -11 64.5 -34.5t69.5 -67t56 -110.5t23 -164v-504q0 -42 6.5 -82t22 -72t40.5 -51.5t62 -19.5h147v-185h-204q-53 0 -108 23t-100.5 69
t-74.5 115.5t-29 161.5v504q0 73 -18 132.5t-49 100.5t-72.5 63.5t-89.5 22.5v201q48 0 89.5 25t72.5 68.5t49 101.5t18 124v508q0 89 29 158.5t74.5 117t100.5 72.5t108 25h204v-184h-147z" />
    <glyph glyph-name="bar" unicode="|" horiz-adv-x="614" 
d="M410 2200v-2790h-205v2790h205z" />
    <glyph glyph-name="braceright" unicode="}" horiz-adv-x="926" 
d="M205 -360q37 0 61.5 18.5t39 49.5t20.5 71.5t6 85.5v504q0 86 23 150.5t56.5 110.5t71 75.5t66.5 44.5q-31 10 -68.5 37t-70.5 72.5t-55.5 111.5t-22.5 155v500q0 48 -6 91t-20.5 75.5t-39 52t-61.5 19.5h-148v184h205q52 0 106.5 -25t99 -72.5t73 -117t28.5 -158.5v-508
q0 -71 19 -129.5t51 -100.5t73.5 -65.5t86.5 -23.5v-201q-45 0 -86.5 -23.5t-73.5 -65.5t-51 -101t-19 -129v-504q0 -92 -28.5 -161.5t-73 -115.5t-99 -69t-106.5 -23h-205v185h148z" />
    <glyph glyph-name="asciitilde" unicode="~" horiz-adv-x="1667" 
d="M541 956q55 0 105.5 -15t99 -37.5t95.5 -48.5t94.5 -48.5t96.5 -37.5t102 -15q12 0 37.5 4t51 21.5t44.5 53t19 97.5h192q-10 -112 -42.5 -185t-80.5 -115.5t-107 -59.5t-122 -17q-53 0 -105 15t-102 37.5t-99.5 48.5t-98 48.5t-96 37.5t-95.5 15q-16 0 -42 -4t-50.5 -21
t-42.5 -52t-18 -97h-192q10 112 44 184.5t83.5 115t109 59t119.5 16.5z" />
    <glyph glyph-name="saraileftthai" 
d="M-1769 1962l102 209h995v-209h-1097z" />
    <glyph glyph-name="saraileftthai" unicode="&#xf701;" 
d="M-1769 1962l102 209h995v-209h-1097z" />
    <glyph glyph-name="saraiileftthai" 
d="M-1667 2171h733v258h262v-467h-1097z" />
    <glyph glyph-name="saraiileftthai" unicode="&#xf702;" 
d="M-1667 2171h733v258h262v-467h-1097z" />
    <glyph glyph-name="saraueleftthai" 
d="M-1016 2228q0 -43 30 -72.5t77 -29.5q43 0 72.5 29.5t29.5 72.5q0 47 -29.5 77t-72.5 30q-47 0 -77 -30t-30 -77zM-1176 2228q0 55 21 103.5t57 84.5t84.5 57t104.5 21q55 0 103 -21t83 -57t55.5 -84.5t20.5 -103.5t-20.5 -103.5t-55.5 -84.5t-83 -57t-103 -21h-873
l107 209h504q-4 15 -4.5 30t-0.5 27z" />
    <glyph glyph-name="saraueleftthai" unicode="&#xf703;" 
d="M-1016 2228q0 -43 30 -72.5t77 -29.5q43 0 72.5 29.5t29.5 72.5q0 47 -29.5 77t-72.5 30q-47 0 -77 -30t-30 -77zM-1176 2228q0 55 21 103.5t57 84.5t84.5 57t104.5 21q55 0 103 -21t83 -57t55.5 -84.5t20.5 -103.5t-20.5 -103.5t-55.5 -84.5t-83 -57t-103 -21h-873
l107 209h504q-4 15 -4.5 30t-0.5 27z" />
    <glyph glyph-name="saraueeleftthai" 
d="M-1683 2171h315v258h258v-258h180v258h258v-467h-1114z" />
    <glyph glyph-name="saraueeleftthai" unicode="&#xf704;" 
d="M-1683 2171h315v258h258v-258h180v258h258v-467h-1114z" />
    <glyph glyph-name="maieklowleftthai" 
d="M-934 2470h262v-508h-262v508z" />
    <glyph glyph-name="maieklowleftthai" unicode="&#xf705;" 
d="M-934 2470h262v-508h-262v508z" />
    <glyph glyph-name="maitholowleftthai" 
d="M-1380 1962v250h-144v201h373v-250q91 0 163 19.5t122 53t77 79t27 98.5h250q0 -88 -40 -169.5t-120.5 -144t-202 -100t-284.5 -37.5h-221z" />
    <glyph glyph-name="maitholowleftthai" unicode="&#xf706;" 
d="M-1380 1962v250h-144v201h373v-250q91 0 163 19.5t122 53t77 79t27 98.5h250q0 -88 -40 -169.5t-120.5 -144t-202 -100t-284.5 -37.5h-221z" />
    <glyph glyph-name="maitrilowleftthai" 
d="M-942 1962q0 18 -4.5 48t-14 58.5t-23.5 49t-32 20.5q-20 0 -34 -17.5t-23 -44t-13 -57.5t-4 -57h-172q0 26 -4.5 57t-13 57.5t-21.5 44t-30 17.5q-20 0 -34 -20.5t-23 -49t-13 -58.5t-4 -48h-209q-5 100 14.5 173.5t54.5 122.5t81.5 73t95.5 24q65 0 114.5 -30.5
t73.5 -79.5q22 46 73.5 78t119.5 32q38 0 73 -13t63.5 -38t48.5 -63t28 -87q20 17 33 47t21 65.5t11.5 74t3.5 72.5h222q0 -46 -8.5 -95t-25.5 -96.5t-41 -91t-55 -78t-68.5 -58.5t-80.5 -32h-180z" />
    <glyph glyph-name="maitrilowleftthai" unicode="&#xf707;" 
d="M-942 1962q0 18 -4.5 48t-14 58.5t-23.5 49t-32 20.5q-20 0 -34 -17.5t-23 -44t-13 -57.5t-4 -57h-172q0 26 -4.5 57t-13 57.5t-21.5 44t-30 17.5q-20 0 -34 -20.5t-23 -49t-13 -58.5t-4 -48h-209q-5 100 14.5 173.5t54.5 122.5t81.5 73t95.5 24q65 0 114.5 -30.5
t73.5 -79.5q22 46 73.5 78t119.5 32q38 0 73 -13t63.5 -38t48.5 -63t28 -87q20 17 33 47t21 65.5t11.5 74t3.5 72.5h222q0 -46 -8.5 -95t-25.5 -96.5t-41 -91t-55 -78t-68.5 -58.5t-80.5 -32h-180z" />
    <glyph glyph-name="maichattawalowleftthai" 
d="M-872 2175v-213h-263v213h-233v201h233v209h263v-209h241v-201h-241z" />
    <glyph glyph-name="maichattawalowleftthai" unicode="&#xf708;" 
d="M-872 2175v-213h-263v213h-233v201h233v209h263v-209h241v-201h-241z" />
    <glyph glyph-name="thanthakhatlowleftthai" 
d="M-672 2204q-150 0 -230.5 -58t-80.5 -184h-254q0 103 39 185t111.5 139.5t177.5 88.5t237 33v-204z" />
    <glyph glyph-name="thanthakhatlowleftthai" unicode="&#xf709;" 
d="M-672 2204q-150 0 -230.5 -58t-80.5 -184h-254q0 103 39 185t111.5 139.5t177.5 88.5t237 33v-204z" />
    <glyph glyph-name="maieklowrightthai" 
d="M-426 2474h262v-516h-262v516z" />
    <glyph glyph-name="maieklowrightthai" unicode="&#xf70a;" 
d="M-426 2474h262v-516h-262v516z" />
    <glyph glyph-name="maitholowrightthai" 
d="M-922 1966v250h-143v201h373v-250q90 0 161.5 19.5t121 53t76 79t26.5 98.5h250q0 -88 -39.5 -169.5t-119.5 -144t-200.5 -100t-283.5 -37.5h-222z" />
    <glyph glyph-name="maitholowrightthai" unicode="&#xf70b;" 
d="M-922 1966v250h-143v201h373v-250q90 0 161.5 19.5t121 53t76 79t26.5 98.5h250q0 -88 -39.5 -169.5t-119.5 -144t-200.5 -100t-283.5 -37.5h-222z" />
    <glyph glyph-name="maitrilowrightthai" 
d="M-540 1962q0 18 -5.5 48t-16 58.5t-25 49t-33.5 20.5q-20 0 -35.5 -17.5t-25.5 -44t-15 -57.5t-5 -57h-175q0 26 -5.5 57t-15.5 57.5t-24 44t-31 17.5q-20 0 -35 -20.5t-25 -49t-15 -58.5t-5 -48h-213q-5 100 15 173.5t55.5 122.5t83 73t97.5 24q33 0 64 -8t57.5 -22.5
t47 -35t32.5 -44.5q23 46 75.5 78t121.5 32q39 0 76.5 -13t68.5 -38t53 -63t30 -87q20 17 33.5 47t21.5 65.5t11.5 74t3.5 72.5h226q0 -69 -20 -143.5t-56.5 -139t-89 -110.5t-118.5 -58h-184z" />
    <glyph glyph-name="maitrilowrightthai" unicode="&#xf70c;" 
d="M-540 1962q0 18 -5.5 48t-16 58.5t-25 49t-33.5 20.5q-20 0 -35.5 -17.5t-25.5 -44t-15 -57.5t-5 -57h-175q0 26 -5.5 57t-15.5 57.5t-24 44t-31 17.5q-20 0 -35 -20.5t-25 -49t-15 -58.5t-5 -48h-213q-5 100 15 173.5t55.5 122.5t83 73t97.5 24q33 0 64 -8t57.5 -22.5
t47 -35t32.5 -44.5q23 46 75.5 78t121.5 32q39 0 76.5 -13t68.5 -38t53 -63t30 -87q20 17 33.5 47t21.5 65.5t11.5 74t3.5 72.5h226q0 -69 -20 -143.5t-56.5 -139t-89 -110.5t-118.5 -58h-184z" />
    <glyph glyph-name="maichattawalowrightthai" 
d="M-164 2171v-213h-262v213h-242v201h242v208h262v-208h242v-201h-242z" />
    <glyph glyph-name="maichattawalowrightthai" unicode="&#xf70d;" 
d="M-164 2171v-213h-262v213h-242v201h242v208h262v-208h242v-201h-242z" />
    <glyph glyph-name="thanthakhatlowrightthai" 
d="M-82 2204q-151 0 -231 -58t-80 -184h-254q0 103 39 185t111.5 139.5t177.5 88.5t237 33v-204z" />
    <glyph glyph-name="thanthakhatlowrightthai" unicode="&#xf70e;" 
d="M-82 2204q-151 0 -231 -58t-80 -184h-254q0 103 39 185t111.5 139.5t177.5 88.5t237 33v-204z" />
    <glyph glyph-name="maihanakatleftthai" 
d="M-1184 1962v352h262v-143h1086v-209h-1348z" />
    <glyph glyph-name="maihanakatleftthai" unicode="&#xf710;" 
d="M-1184 1962v352h262v-143h1086v-209h-1348z" />
    <glyph glyph-name="nikhahitleftthai" 
d="M-1217 2224q0 58 22.5 110t60.5 90t89.5 60.5t110.5 22.5q57 0 108.5 -22.5t90 -60.5t61.5 -90t23 -110q0 -59 -23 -110t-61.5 -89.5t-90 -60.5t-108.5 -22q-59 0 -110.5 22t-89.5 60.5t-60.5 89.5t-22.5 110zM-1049 2224q0 -23 9.5 -44t25 -36.5t36.5 -25t44 -9.5
t44 9.5t36.5 25t25 36.5t9.5 44t-9.5 44t-25 36.5t-36.5 25t-44 9.5t-44 -9.5t-36.5 -25t-25 -36.5t-9.5 -44z" />
    <glyph glyph-name="nikhahitleftthai" unicode="&#xf711;" 
d="M-1217 2224q0 58 22.5 110t60.5 90t89.5 60.5t110.5 22.5q57 0 108.5 -22.5t90 -60.5t61.5 -90t23 -110q0 -59 -23 -110t-61.5 -89.5t-90 -60.5t-108.5 -22q-59 0 -110.5 22t-89.5 60.5t-60.5 89.5t-22.5 110zM-1049 2224q0 -23 9.5 -44t25 -36.5t36.5 -25t44 -9.5
t44 9.5t36.5 25t25 36.5t9.5 44t-9.5 44t-25 36.5t-36.5 25t-44 9.5t-44 -9.5t-36.5 -25t-25 -36.5t-9.5 -44z" />
    <glyph glyph-name="maitaikhuleftthai" 
d="M-1405 2306q0 -15 4 -35.5t17 -39t37.5 -31.5t64.5 -13q32 0 56.5 11.5t40.5 32.5t23.5 49.5t6.5 62.5h180q-2 -34 5 -62.5t22.5 -49.5t39.5 -32.5t56 -11.5q35 0 58 12.5t35.5 33.5t15 49.5t-1.5 60.5h204q12 -95 -6 -163.5t-57 -112.5t-94.5 -64.5t-116.5 -20.5
q-52 0 -94.5 17.5t-74 44.5t-51.5 59.5t-26 63.5q-3 -31 -26 -63.5t-59 -59.5t-82 -44.5t-95 -17.5q-94 0 -157.5 32t-102.5 80.5t-55.5 105.5t-16.5 106q0 95 35.5 161.5t94 108t135 60t157.5 18.5h782v-192h-753q-69 0 -109.5 -16t-60.5 -39.5t-25.5 -50.5t-5.5 -50z" />
    <glyph glyph-name="maitaikhuleftthai" unicode="&#xf712;" 
d="M-1405 2306q0 -15 4 -35.5t17 -39t37.5 -31.5t64.5 -13q32 0 56.5 11.5t40.5 32.5t23.5 49.5t6.5 62.5h180q-2 -34 5 -62.5t22.5 -49.5t39.5 -32.5t56 -11.5q35 0 58 12.5t35.5 33.5t15 49.5t-1.5 60.5h204q12 -95 -6 -163.5t-57 -112.5t-94.5 -64.5t-116.5 -20.5
q-52 0 -94.5 17.5t-74 44.5t-51.5 59.5t-26 63.5q-3 -31 -26 -63.5t-59 -59.5t-82 -44.5t-95 -17.5q-94 0 -157.5 32t-102.5 80.5t-55.5 105.5t-16.5 106q0 95 35.5 161.5t94 108t135 60t157.5 18.5h782v-192h-753q-69 0 -109.5 -16t-60.5 -39.5t-25.5 -50.5t-5.5 -50z" />
    <glyph glyph-name="maiekupperleftthai" 
d="M-934 3060h262v-443h-262v443z" />
    <glyph glyph-name="maiekupperleftthai" unicode="&#xf713;" 
d="M-934 3060h262v-443h-262v443z" />
    <glyph glyph-name="maithoupperleftthai" 
d="M-1225 2621v250h-143v201h373v-250q90 0 161.5 19.5t121 53.5t76 79.5t26.5 97.5h250q0 -87 -39.5 -168.5t-119.5 -144.5t-201 -100.5t-284 -37.5h-221z" />
    <glyph glyph-name="maithoupperleftthai" unicode="&#xf714;" 
d="M-1225 2621v250h-143v201h373v-250q90 0 161.5 19.5t121 53.5t76 79.5t26.5 97.5h250q0 -87 -39.5 -168.5t-119.5 -144.5t-201 -100.5t-284 -37.5h-221z" />
    <glyph glyph-name="maitriupperleftthai" 
d="M-741 2617q0 18 -4.5 48t-14 58.5t-23.5 49t-32 20.5q-20 0 -34.5 -17.5t-24.5 -44t-14.5 -57.5t-4.5 -57h-172q0 26 -4.5 57t-13.5 57.5t-22 44t-30 17.5q-20 0 -34 -20.5t-22.5 -49t-12.5 -58.5t-4 -48h-213q-6 100 13 174t54.5 123t83.5 73t99 24q65 0 114.5 -30.5
t77.5 -80.5q22 46 73 78.5t120 32.5q40 0 75.5 -13.5t64 -39.5t48 -63t25.5 -85q21 17 39 46.5t31 65.5t20.5 74t7.5 72h229q0 -69 -24 -143.5t-65.5 -138.5t-98.5 -110.5t-123 -58.5h-184z" />
    <glyph glyph-name="maitriupperleftthai" unicode="&#xf715;" 
d="M-741 2617q0 18 -4.5 48t-14 58.5t-23.5 49t-32 20.5q-20 0 -34.5 -17.5t-24.5 -44t-14.5 -57.5t-4.5 -57h-172q0 26 -4.5 57t-13.5 57.5t-22 44t-30 17.5q-20 0 -34 -20.5t-22.5 -49t-12.5 -58.5t-4 -48h-213q-6 100 13 174t54.5 123t83.5 73t99 24q65 0 114.5 -30.5
t77.5 -80.5q22 46 73 78.5t120 32.5q40 0 75.5 -13.5t64 -39.5t48 -63t25.5 -85q21 17 39 46.5t31 65.5t20.5 74t7.5 72h229q0 -69 -24 -143.5t-65.5 -138.5t-98.5 -110.5t-123 -58.5h-184z" />
    <glyph glyph-name="maichattawaupperleftthai" 
d="M-677 2835v-218h-252v218h-242v191h242v214h252v-214h242v-191h-242z" />
    <glyph glyph-name="maichattawaupperleftthai" unicode="&#xf716;" 
d="M-677 2835v-218h-252v218h-242v191h242v214h252v-214h242v-191h-242z" />
    <glyph glyph-name="thanthakhatupperleftthai" 
d="M-328 2695q-150 0 -230.5 -58t-80.5 -183h-254q0 103 39 185t111.5 139.5t177.5 88.5t237 33v-205z" />
    <glyph glyph-name="thanthakhatupperleftthai" unicode="&#xf717;" 
d="M-328 2695q-150 0 -230.5 -58t-80.5 -183h-254q0 103 39 185t111.5 139.5t177.5 88.5t237 33v-205z" />
    <glyph glyph-name="uni00A0" unicode="&#xa0;" horiz-adv-x="496" 
 />
    <glyph glyph-name="cent" unicode="&#xa2;" horiz-adv-x="1544" 
d="M721 1769h180v-2068h-180v2068zM1186 999q-27 134 -116.5 207.5t-233.5 73.5q-126 0 -211 -46t-136 -122.5t-72.5 -176.5t-21.5 -208q0 -97 23 -190t72.5 -165.5t128 -117t189.5 -44.5q84 0 151 24t116 68.5t79.5 108.5t41.5 144h239q-20 -129 -70 -231.5t-128.5 -173
t-185.5 -108t-240 -37.5q-162 0 -286 53.5t-207.5 149.5t-126.5 228.5t-43 290.5q0 159 41 297.5t124.5 241t209 161.5t293.5 59q120 0 225.5 -29t187 -88.5t133.5 -151.5t64 -218h-240z" />
    <glyph glyph-name="sterling" unicode="&#xa3;" horiz-adv-x="1544" 
d="M1211 1329q-8 108 -36 193.5t-77 144t-119.5 89.5t-162.5 31q-84 0 -156.5 -27t-125 -75t-82.5 -113.5t-30 -141.5q0 -60 12 -113.5t31.5 -102t44.5 -94t51 -90.5h443v-145h-373q18 -36 33.5 -88.5t15.5 -103.5q0 -83 -21.5 -152.5t-56.5 -127t-80 -103t-92 -79.5
q66 22 127 31.5t130 9.5q51 0 116 -15.5t131 -34t126.5 -34t102.5 -15.5q31 0 66 1.5t73.5 8t79 20t81.5 37.5v-212q-51 -26 -126.5 -39t-171.5 -13q-74 0 -144 13.5t-141.5 29.5t-146.5 29.5t-159 13.5q-28 0 -67 -3t-82.5 -9t-89 -14t-87 -18.5t-76.5 -23t-57 -26.5v192
q48 27 102.5 77t101 115.5t77 140.5t30.5 152q0 27 -6.5 59t-16.5 64.5t-22.5 62.5t-24.5 54h-237v145h155q-24 42 -46.5 87t-39 96t-26.5 108t-10 122q0 130 53.5 234t143 176.5t206.5 111t245 38.5q150 0 271.5 -42.5t208 -127t135 -210.5t52.5 -294h-256z" />
    <glyph glyph-name="yen" unicode="&#xa5;" horiz-adv-x="1544" 
d="M246 452v181h393v120l-49 88h-344v176h246l-508 938h327l475 -950l459 950h316l-500 -938h254v-176h-352l-50 -88v-120h402v-181h-402v-452h-274v452h-393z" />
    <glyph glyph-name="copyright" unicode="&#xa9;" horiz-adv-x="2171" 
d="M282 965q0 -120 27 -229t77.5 -202t122.5 -168.5t161.5 -128.5t194.5 -81.5t222 -28.5q113 0 217 28.5t193.5 81.5t162.5 128.5t125 168.5t80 202t28 229t-28 228.5t-80 200.5t-125 166t-162.5 126t-193.5 80t-217 28q-176 0 -323.5 -62t-254.5 -172t-167 -262.5
t-60 -332.5zM66 965q0 142 37 272.5t104 243t161 204.5t207.5 157t243 100.5t268.5 35.5t268.5 -35.5t243 -100.5t206.5 -157t160 -204.5t103.5 -243t36.5 -272.5q0 -146 -36.5 -278t-103.5 -245t-160 -203.5t-206.5 -154.5t-243 -98.5t-268.5 -34.5t-268.5 34.5t-243 98.5
t-207.5 154.5t-161 203.5t-104 245t-37 278zM1388 1165q0 37 -17.5 78t-52 75.5t-87.5 57.5t-123 23q-103 0 -171.5 -37.5t-110 -100t-59 -144t-17.5 -169.5q0 -80 18.5 -156t58.5 -134.5t104 -94t154 -35.5q77 0 134.5 19.5t95.5 53.5t58 80t22 98h213q-9 -101 -48.5 -182
t-106.5 -137.5t-160 -86.5t-208 -30q-137 0 -239.5 45.5t-171 126t-103 191.5t-34.5 242q0 132 33.5 247.5t102 201.5t173 136t245.5 50q108 0 201 -27t161 -79.5t107 -130.5t39 -181h-211z" />
    <glyph glyph-name="guillemotleft" unicode="&#xab;" horiz-adv-x="1294" 
d="M109 888l460 361v-258l-280 -217l280 -205v-262l-460 363v218zM672 888l460 361v-258l-280 -217l280 -205v-262l-460 363v218z" />
    <glyph glyph-name="registered" unicode="&#xae;" horiz-adv-x="2216" 
d="M287 987q0 -184 61 -341t170.5 -271.5t260.5 -179t331 -64.5q116 0 222 29.5t197.5 83.5t166 131t127 172t81.5 206t29 234t-29 233.5t-81.5 205t-127 170t-166 129t-197.5 82t-222 28.5q-120 0 -227.5 -28.5t-199 -82t-165 -129t-125 -170t-79 -205t-27.5 -233.5z
M66 987q0 145 38 278.5t106.5 248.5t164 209t211.5 160.5t249 103t275 36.5t274.5 -36.5t248 -103t211 -160.5t163.5 -209t105.5 -248.5t37.5 -278.5q0 -149 -37.5 -284t-105.5 -250t-163.5 -208t-211 -158.5t-248 -100.5t-274.5 -35t-275 35t-249 100.5t-211.5 158.5
t-164 208t-106.5 249.5t-38 284.5zM1183 1576q88 0 157.5 -22t117.5 -63.5t73 -100.5t25 -133q0 -48 -14 -95.5t-40.5 -88t-64 -71t-84.5 -45.5q32 -19 53.5 -42t35.5 -47t21.5 -46t11.5 -38l47 -177q8 -30 15.5 -54.5t19 -48t28.5 -48t44 -55.5h-230q-10 13 -19.5 32.5
t-18.5 42.5t-17 48t-15 49l-49 176q-8 27 -18.5 51t-30 42t-51 29t-80.5 11h-221v-481h-202v1175h506zM1114 1054q47 0 91 8.5t78 29t54.5 55t20.5 87.5q0 75 -44.5 119.5t-138.5 44.5h-296v-344h235z" />
    <glyph glyph-name="guillemotright" unicode="&#xbb;" horiz-adv-x="1294" 
d="M1185 670l-460 -363v262l280 205l-280 217v258l460 -361v-218zM622 670l-460 -363v262l280 205l-280 217v258l460 -361v-218z" />
    <glyph glyph-name="onequarter" unicode="&#xbc;" horiz-adv-x="2335" 
d="M1827 1999l-1143 -1999h-197l1143 1999h197zM135 1720q61 3 116.5 15t100 38t76.5 69.5t47 111.5h164v-1188h-188v860q-62 -40 -139.5 -59.5t-176.5 -22.5v176zM1838 430v465l-356 -465h356zM2190 430v-168h-164v-262h-188v262h-541v168l578 758h151v-758h164z" />
    <glyph glyph-name="onehalf" unicode="&#xbd;" horiz-adv-x="2335" 
d="M1411 754q0 89 29 168t83 138t132 93.5t176 34.5q83 0 156 -24t127.5 -69t86 -110.5t31.5 -148.5q0 -94 -35.5 -162t-93 -122t-130.5 -98.5t-148 -90.5q-32 -20 -64 -41.5t-61.5 -45.5t-53 -52t-36.5 -60h605v-164h-839q0 63 16.5 118t44 102.5t63.5 88t76 74.5t81 61.5
t78 50.5q74 45 129 82t91 75t54 81.5t18 102.5q0 86 -51.5 137t-144.5 51q-60 0 -101.5 -24.5t-66.5 -63.5t-36 -87t-11 -95h-205zM1782 1999l-1143 -1999h-197l1143 1999h197zM135 1720q61 3 116.5 15t100 38t76.5 69.5t47 111.5h164v-1188h-188v860q-62 -40 -139.5 -59.5
t-176.5 -22.5v176z" />
    <glyph glyph-name="threequarters" unicode="&#xbe;" horiz-adv-x="2335" 
d="M573 1454q42 0 79.5 9.5t66 30t45.5 52t17 76.5q0 42 -15 72.5t-41 51t-60.5 30.5t-74.5 10q-59 0 -98.5 -18t-63.5 -50t-34.5 -75.5t-10.5 -94.5h-205q6 92 36 167t82.5 128t126 82t167.5 29q86 0 157 -21.5t122 -63.5t79.5 -104t28.5 -143q0 -35 -12 -68.5t-34.5 -63.5
t-53.5 -54.5t-70 -42.5q59 -18 102 -46.5t70.5 -65t41 -80t13.5 -91.5q0 -77 -34.5 -143.5t-93.5 -115.5t-136.5 -77.5t-163.5 -28.5q-92 0 -173.5 25t-142.5 75t-96 125.5t-35 176.5h209q3 -117 59 -177.5t179 -60.5q48 0 89 16t71 42.5t47 61.5t17 73q0 55 -19 93.5
t-51.5 62.5t-75 34.5t-90.5 10.5h-66v151h45zM1921 430v465l-356 -465h356zM2273 430v-168h-164v-262h-188v262h-541v168l578 758h151v-758h164zM2036 1999l-1143 -1999h-197l1143 1999h197z" />
    <glyph glyph-name="multiply" unicode="&#xd7;" horiz-adv-x="1434" 
d="M573 750l-512 548l156 148l504 -541l508 541l155 -148l-516 -548l516 -545l-155 -148l-508 537l-504 -537l-156 148z" />
    <glyph glyph-name="divide" unicode="&#xf7;" horiz-adv-x="1667" 
d="M647 176q0 39 15 74t40.5 61.5t58.5 42t70 15.5q39 0 73 -15.5t60 -42t41 -61.5t15 -74q0 -34 -15 -65.5t-40.5 -56t-58.5 -39.5t-70 -15t-71 13.5t-60.5 37.5t-42 56t-15.5 69zM647 1323q0 38 15 72.5t40.5 60t58.5 40.5t70 15q39 0 73 -15t60 -40.5t41 -60t15 -72.5
q0 -37 -15 -70t-40.5 -58.5t-58.5 -40.5t-70 -15t-71 15t-60.5 40.5t-42 58.5t-15.5 70zM1540 860v-217h-1417v217h1417z" />
    <glyph glyph-name="kokaithai" unicode="&#xe01;" horiz-adv-x="1720" 
d="M811 1483q-78 1 -142 -13.5t-115.5 -38.5t-90 -55t-65 -64t-41 -64.5t-17.5 -55.5q29 -17 52 -45.5t38.5 -66t24 -82t8.5 -93.5v-905h-270v909q0 39 -5.5 78.5t-20.5 77t-41.5 70t-68.5 57.5q22 95 75 189t144 168.5t223 120.5t312 46q142 0 252.5 -27t193.5 -74.5
t140 -113.5t92.5 -143.5t51 -164.5t15.5 -177v-1016h-274v1049q0 78 -23.5 155t-78.5 138.5t-145.5 100t-223.5 40.5z" />
    <glyph glyph-name="khokhaithai" unicode="&#xe02;" horiz-adv-x="1442" 
d="M582 0l-332 1475h-213v204h450l308 -1466l307 1466h278l-376 -1679h-422z" />
    <glyph glyph-name="khokhuatthai" unicode="&#xe03;" horiz-adv-x="1548" 
d="M614 1393q-9 -19 -28.5 -36.5t-46 -31.5t-58 -22.5t-63.5 -8.5q-27 0 -63 5t-74.5 20t-76.5 41.5t-67.5 69.5t-48 104t-18.5 145h254q0 -34 9 -65t27.5 -55t46 -38t64.5 -14q35 0 63.5 13t48 36t30 54.5t10.5 68.5h262v-327q0 -57 -18.5 -100.5t-50 -82.5t-72 -77
t-85.5 -84q-41 -43 -70.5 -80t-48.5 -74.5t-29 -78t-11 -91.5v-111q0 -89 22.5 -157.5t64 -115.5t98.5 -71t126 -24q64 0 119.5 18t96.5 58.5t64 106.5t23 161v1130h270v-1159q0 -144 -47 -250t-126 -175t-182.5 -102.5t-217.5 -33.5q-117 0 -223.5 36t-188 106.5
t-130 175.5t-48.5 243v82q0 67 3.5 119.5t12 94t23 75.5t38 65t56 62t76.5 67q25 19 61.5 45.5t69 64t53 86.5t13.5 112h-13z" />
    <glyph glyph-name="khokhwaithai" unicode="&#xe04;" horiz-adv-x="1737" 
d="M434 0h-270v1004q0 90 13 177.5t44.5 167t84 146.5t130.5 116.5t185 77t247 27.5q139 0 245.5 -27.5t185 -77t131 -116.5t84.5 -146.5t45.5 -167t13.5 -177.5v-1004h-275v1040q0 51 -9 104t-29.5 102t-53.5 92.5t-81 75.5t-111.5 50.5t-145.5 18.5t-146 -18.5t-112 -50.5
t-81.5 -75.5t-54.5 -92.5t-30.5 -102t-9.5 -104v-376q46 89 101 151.5t121.5 102t147.5 57t179 16.5v-229q-147 0 -251.5 -41t-170.5 -117.5t-96.5 -187t-30.5 -248.5v-168z" />
    <glyph glyph-name="khokhonthai" unicode="&#xe05;" horiz-adv-x="1753" 
d="M610 1438q-51 -20 -84.5 -64t-54 -98.5t-29 -114.5t-8.5 -112v-385q46 89 101 151.5t121.5 102t147.5 57t179 16.5v-229q-147 0 -251.5 -41t-170.5 -117.5t-96.5 -187t-30.5 -248.5v-168h-270v1016q0 78 9 154t31 146.5t58.5 133t91.5 112t130.5 84t174.5 50.5l218 -230
l204 230q102 -15 179.5 -49t134 -83t94 -111.5t60 -133t31.5 -147.5t9 -156v-1016h-274v1049q0 52 -8 112.5t-28.5 116t-55 99t-88.5 61.5l-226 -234q-6 -6 -13 -11t-19 -5q-13 0 -22 5t-15 11z" />
    <glyph glyph-name="khorakhangthai" unicode="&#xe06;" horiz-adv-x="1733" 
d="M614 1393q-9 -19 -28.5 -36.5t-46 -31.5t-58 -22.5t-63.5 -8.5q-27 0 -63 5t-74.5 20t-76.5 41.5t-67.5 69.5t-48 104t-18.5 145h254q0 -34 9 -65t27.5 -55t46 -38t64.5 -14q35 0 63.5 13t48 36t30 54.5t10.5 68.5h262v-327q0 -74 -24.5 -130t-60 -99.5t-75 -77
t-70.5 -62.5q-44 -40 -74 -71t-48 -66t-25.5 -81.5t-7.5 -117.5q0 -84 32.5 -164t93.5 -141.5t147 -99t194 -37.5q73 0 133.5 24.5t103.5 69t66.5 107t23.5 139.5v1134h275v-1101q0 -137 -27.5 -251t-92.5 -195.5t-173.5 -127t-271.5 -45.5q-180 0 -306.5 76.5t-210.5 234.5
l-8 -270h-258v590q0 63 1 112.5t6.5 89t17 72.5t33 65t54.5 64.5t81 71.5q51 43 89.5 73t65 63t39 77t10.5 115h-4z" />
    <glyph glyph-name="ngonguthai" unicode="&#xe07;" horiz-adv-x="1274" 
d="M594 279q18 -44 50 -65t69 -21q59 0 93 34.5t34 83.5v1159h-234v209h504v-1314q0 -108 -31 -184.5t-85 -126t-127.5 -72.5t-157.5 -23q-85 0 -148 21.5t-109.5 62t-79 98t-57.5 129.5l-249 713h278z" />
    <glyph glyph-name="chochanthai" unicode="&#xe08;" horiz-adv-x="1573" 
d="M1430 1135q-1 -66 -19.5 -152t-48 -184.5t-68 -204t-80.5 -209.5t-84.5 -202.5t-80.5 -182.5h-377l-266 774h-218v209h430l246 -741q26 61 56 132.5t60 148.5t58.5 156t50.5 155t35.5 146t14.5 130q3 186 -90.5 279.5t-282.5 93.5q-152 0 -243 -74.5t-122 -216.5h-303
q18 115 73.5 210.5t144.5 164.5t210.5 107t272.5 38q74 0 150 -11t146.5 -37t132.5 -69t107.5 -107t71 -151.5t23.5 -201.5z" />
    <glyph glyph-name="chochingthai" unicode="&#xe09;" horiz-adv-x="1720" 
d="M127 1204q11 102 55.5 194.5t130 163t215.5 112.5t312 42q143 0 252 -27t188.5 -74.5t132.5 -113.5t85 -143.5t45 -164.5t13 -177v-1016h-258l-8 270q-83 -158 -220 -234.5t-329 -76.5q-167 0 -278 45.5t-177.5 127t-94 195.5t-27.5 251v360h270v-393q0 -77 24.5 -139.5
t69.5 -107t109.5 -69t144.5 -24.5q126 0 220 40t156 110.5t93 167t31 210.5v316q0 78 -20.5 155.5t-71.5 139.5t-136 100.5t-214 38.5q-117 0 -195.5 -25.5t-127.5 -66t-73.5 -90t-33.5 -97.5h-283z" />
    <glyph glyph-name="chochangthai" unicode="&#xe0a;" horiz-adv-x="1532" 
d="M1094 659q0 76 -11.5 128t-32.5 86t-51.5 52.5t-68.5 27.5t-83.5 11t-96.5 3v221q104 0 176 29.5t116.5 90t64 153t19.5 218.5h275q0 -101 -15 -199.5t-57 -179.5t-118 -137t-199 -73v-9q81 -8 138.5 -32.5t96.5 -59.5t62 -77t35.5 -86.5t16 -87.5t3.5 -79v-139
q0 -144 -49.5 -250t-132 -175t-188.5 -102.5t-220 -33.5q-117 0 -226 36t-193.5 106.5t-135.5 175.5t-51 243v139q0 66 3.5 114.5t11 86t19.5 67.5t30 58.5t41.5 59t54.5 69.5q26 34 46.5 62.5t36 54.5t25.5 51.5t15 52.5q12 75 -24 117.5t-108 42.5q-41 0 -76.5 -6.5
t-65.5 -16t-54.5 -19t-44.5 -15.5v200q43 17 85.5 29.5t80.5 20.5t69.5 12t51.5 4q87 0 158 -21t119 -63.5t70 -107.5t13 -152q-8 -59 -27.5 -106.5t-48 -92.5t-64 -92.5t-73.5 -105.5q-28 -43 -42.5 -77.5t-21 -68t-8 -71.5t-2.5 -87v-86q0 -89 26.5 -157.5t72.5 -115.5
t107 -71t130 -24q66 0 124 18t101.5 58.5t69 106.5t25.5 161v110z" />
    <glyph glyph-name="sosothai" unicode="&#xe0b;" horiz-adv-x="1573" 
d="M496 573q0 -89 26.5 -157.5t71.5 -115.5t105 -71t128 -24q66 0 124.5 18t102 58.5t68.5 106.5t25 161v110q0 103 -21.5 163.5t-60 92t-93 41t-120.5 11.5v221q91 6 154 38.5t102.5 93.5t57.5 150t18 209h270q0 -101 -14.5 -199.5t-57 -179.5t-118.5 -137t-199 -73v-9
q81 -8 139 -32.5t97.5 -59.5t63 -77t36 -86.5t16.5 -87.5t4 -79v-139q0 -96 -23 -175t-63.5 -141.5t-96.5 -108.5t-122 -76t-139.5 -45t-149.5 -15q-117 0 -226 36t-193.5 106.5t-135.5 175.5t-51 243q0 102 3 182.5t19.5 148t53 124t104.5 110.5q15 12 37 28.5t45 36.5
t45 45t38.5 55t24.5 65.5t3 77.5h-12q-8 -19 -27 -36.5t-45.5 -31.5t-58.5 -22.5t-66 -8.5q-27 0 -63 5t-74.5 20t-76.5 41.5t-67.5 69.5t-48 104t-18.5 145h254q0 -34 9.5 -65t28.5 -55t46.5 -38t62.5 -14t63.5 13t48 36t30 54.5t10.5 68.5h262v-327q0 -57 -18.5 -100.5
t-49.5 -82.5t-72 -77t-85 -84q-42 -43 -67.5 -96t-39.5 -110.5t-19 -116t-5 -112.5z" />
    <glyph glyph-name="chochoethai" unicode="&#xe0c;" horiz-adv-x="2601" 
d="M1487 733q0 -114 27 -210.5t79 -167t128.5 -110.5t174.5 -40q61 0 110.5 17.5t84.5 57.5t53.5 105t18.5 160v1134h274v-1101q0 -148 -24.5 -263t-83 -194t-155.5 -120.5t-241 -41.5q-80 0 -149 25.5t-126 68.5t-102 99t-77 118l-9 -270h-258v1049q0 78 -21.5 155
t-72.5 138.5t-134 100t-206 40.5q-104 1 -183 -25.5t-133 -69.5t-84.5 -95t-37.5 -101q29 -17 52 -45.5t38.5 -66t24 -82t8.5 -93.5v-696h180v-209h-450v909q0 39 -5.5 78.5t-20.5 77t-41.5 70t-68.5 57.5q22 95 74.5 189t140.5 168.5t213.5 120.5t292.5 46q135 0 240 -27
t184 -74.5t133.5 -113.5t88 -143.5t48.5 -164.5t15 -177v-283z" />
    <glyph glyph-name="yoyingthai" unicode="&#xe0d;" horiz-adv-x="2601" 
d="M2171 414q-32 -62 -77.5 -117.5t-102.5 -98t-126 -67.5t-149 -25q-144 0 -241 41t-155.5 119.5t-83 193t-24.5 261.5v328q0 78 -21.5 155t-72.5 138.5t-134 100t-206 40.5q-104 1 -183.5 -25t-134 -68.5t-84.5 -94.5t-36 -103q29 -17 52 -45.5t38.5 -66t24 -82t8.5 -93.5
v-696h180v-209h-450v909q0 39 -5.5 78.5t-20.5 77t-41.5 70t-68.5 57.5q22 95 74.5 189t140.5 168.5t213.5 120.5t292.5 46q135 0 240 -27t184 -74.5t133.5 -113.5t88 -143.5t48.5 -164.5t15 -177v-328q0 -95 18.5 -160t53 -105t83.5 -57.5t111 -17.5q98 0 174.5 40.5
t129 112t79.5 168t27 208.5v802h274v-1331q0 -117 -11.5 -205t-30 -154.5t-43 -114.5t-50.5 -83q-48 -71 -108.5 -120t-130.5 -79.5t-147.5 -44.5t-158.5 -14q-112 0 -215 28t-184 86t-134 145.5t-65 207.5h254q9 -63 43.5 -111t82.5 -81t104 -49.5t110 -16.5q80 0 142 19
t108.5 51.5t78.5 76.5t52 94t28.5 104t8.5 106v221z" />
    <glyph glyph-name="dochadathai" unicode="&#xe0e;" horiz-adv-x="1790" 
d="M1626 -545h-274q-34 49 -79 85.5t-97.5 60.5t-111 35.5t-118.5 11.5q-68 0 -134 -14t-127 -41t-113.5 -67.5t-92.5 -94.5v250q96 89 218 132.5t249 43.5q109 0 212.5 -32.5t193.5 -94.5v1319q0 78 -23.5 155t-78.5 138.5t-145.5 100t-223.5 40.5q-78 1 -142.5 -13.5
t-115.5 -38.5t-90 -55t-65 -64t-40.5 -64.5t-17.5 -55.5q29 -17 51.5 -45.5t38.5 -66t24 -82t8 -93.5v-905h-434v209h164v700q0 39 -5.5 78.5t-20.5 77t-41 70t-68 57.5q21 95 74 189t144 168.5t223.5 120.5t312.5 46q142 0 252.5 -27t193.5 -74.5t140 -113.5t92.5 -143.5
t51 -164.5t15.5 -177v-1561z" />
    <glyph glyph-name="topatakthai" unicode="&#xe0f;" horiz-adv-x="1790" 
d="M1352 1049q0 78 -23.5 155t-78.5 138.5t-145.5 100t-223.5 40.5q-78 1 -142.5 -13.5t-115.5 -38.5t-90 -55t-65 -64t-40.5 -64.5t-17.5 -55.5q29 -17 51.5 -45.5t38.5 -66t24 -82t8 -93.5v-905h-434v209h164v700q0 39 -5.5 78.5t-20.5 77t-41 70t-68 57.5q21 95 74 189
t144 168.5t223.5 120.5t312.5 46q142 0 252.5 -27t193.5 -74.5t140 -113.5t92.5 -143.5t51 -164.5t15.5 -177v-1561h-274q-6 29 -21 62.5t-40.5 61.5t-62 46.5t-85.5 18.5t-86 -18t-61.5 -46t-37 -61t-12.5 -64h-217q0 22 -8 54.5t-29 63.5t-56.5 53t-90.5 22
q-46 0 -78 -17.5t-52 -45.5t-29 -62t-9 -68h-250q0 103 31.5 179.5t85 126.5t125 75t151.5 25q109 0 184.5 -47.5t118.5 -137.5q23 45 56.5 77.5t71 53.5t77 31t74.5 10q51 0 91 -12.5t70.5 -31t52.5 -39t36 -35.5v1319z" />
    <glyph glyph-name="thothanthai" unicode="&#xe10;" horiz-adv-x="1565" 
d="M733 -557h-155q-8 18 -16.5 43t-22.5 47t-35 37.5t-53 15.5q-28 0 -48.5 -12t-34.5 -32t-21 -45.5t-7 -53.5h-188q-6 103 22 170t72 106.5t93.5 55.5t86.5 16q38 0 68.5 -8.5t55 -22.5t43.5 -32.5t34 -38.5q18 32 44 52t53 31t51.5 15t39.5 4q31 0 58.5 -7t50.5 -18
t41 -25t30 -28h9v127h274v-397h-274q-8 28 -19 53.5t-27.5 45.5t-40 32t-57.5 12t-58 -11t-39.5 -30t-22.5 -45t-7 -57zM1430 1135q-1 -66 -19.5 -152t-48 -184.5t-68 -204t-80.5 -209.5t-84.5 -202.5t-80.5 -182.5h-377l-266 774h-218v209h430l246 -741q26 61 56 132.5
t60 148.5t58.5 156t50.5 155t35.5 146t14.5 130q3 186 -90.5 279.5t-282.5 93.5q-152 0 -243 -74.5t-122 -216.5h-303q18 115 73.5 210.5t144.5 164.5t210.5 107t272.5 38q68 0 137 -9.5t137 -31.5q48 3 80.5 20t53.5 42t30.5 55t11.5 59h295q-2 -43 -15.5 -90t-43 -90
t-76.5 -78t-115 -53q32 -34 58 -75t44 -90.5t26.5 -108t7.5 -127.5z" />
    <glyph glyph-name="thonangmonthothai" unicode="&#xe11;" horiz-adv-x="1733" 
d="M885 1516q69 58 134 97t123.5 63t108.5 34t88 10q72 0 117 -25t70 -71t34 -111t9 -145v-1368h-275v1262q0 38 -1 73t-7.5 61.5t-20.5 42t-40 15.5q-34 0 -84 -26.5t-111 -75.5t-130.5 -119t-141.5 -156q-53 -65 -93 -111.5t-69.5 -84t-48.5 -69.5t-30.5 -67.5t-16 -78.5
t-4.5 -101v-565h-275v532q0 63 1.5 111.5t7.5 87.5t17.5 72t31 66.5t48.5 70.5t70 84q46 52 90 95.5t76 85.5t48 87t7 101h-4q-9 -19 -28.5 -36.5t-46 -31.5t-58 -22.5t-63.5 -8.5q-27 0 -63 5t-74.5 20t-76.5 41.5t-67.5 69.5t-48 104t-18.5 145h254q0 -34 9 -65t27.5 -55
t46 -38t64.5 -14q35 0 63.5 13t48 36t30 54.5t10.5 68.5h262v-163z" />
    <glyph glyph-name="thophuthaothai" unicode="&#xe12;" horiz-adv-x="2671" 
d="M1556 733q0 -114 27 -210.5t79.5 -167t129 -110.5t174.5 -40q63 0 112.5 17.5t83.5 57.5t52 105t18 160v1134h275v-1101q0 -148 -24.5 -263t-83 -194t-155.5 -120.5t-241 -41.5q-80 0 -149 25.5t-126 68.5t-102.5 99t-77.5 118l-8 -270h-258v1077q0 51 -5.5 106.5
t-22 106t-48.5 90.5t-84 58l-229 -234q-3 -6 -11.5 -11t-21.5 -5q-12 0 -21.5 5t-15.5 11l-229 234q-51 -20 -82 -60t-48.5 -90t-23.5 -105t-6 -106v-729l344 438h-139v209h410v-209l-615 -786h-270v1044q0 117 19 225t71.5 195t146 148t242.5 84l217 -230l205 230
q154 -22 250 -82t149.5 -147t72.5 -196t19 -227v-311z" />
    <glyph glyph-name="nonenthai" unicode="&#xe13;" horiz-adv-x="2601" 
d="M2437 0h-258l-8 270q-32 -62 -77.5 -118t-102.5 -99t-126 -68.5t-149 -25.5q-144 0 -241 41.5t-155.5 120.5t-83 194t-24.5 263v471q0 78 -21.5 155t-72.5 138.5t-134 100t-206 40.5q-104 1 -183.5 -25t-134 -68.5t-84.5 -94.5t-36 -103q29 -17 52 -45.5t38.5 -66t24 -82
t8.5 -93.5v-696h180v-209h-450v909q0 39 -5.5 78.5t-20.5 77t-41.5 70t-68.5 57.5q22 95 74.5 189t140.5 168.5t213.5 120.5t292.5 46q135 0 240 -27t184 -74.5t133.5 -113.5t88 -143.5t48.5 -164.5t15 -177v-471q0 -95 18.5 -160t53 -105t83.5 -57.5t111 -17.5
q98 0 174.5 40t129 110.5t79.5 167t27 210.5v946h274v-1679z" />
    <glyph glyph-name="dodekthai" unicode="&#xe14;" horiz-adv-x="1753" 
d="M815 786h-156v209h426v-209l-651 -786h-270v1008q0 90 13 177.5t45 166t85 145.5t132 115.5t187 76t251 27.5q140 0 247.5 -27.5t186.5 -76t132.5 -115.5t85.5 -145.5t46 -166t14 -177.5v-1008h-274v1044q0 51 -7.5 103.5t-26.5 101.5t-51.5 91.5t-81 74t-115.5 50
t-156 18.5q-90 0 -158 -18.5t-117.5 -50t-81.5 -74t-51.5 -91.5t-27 -101.5t-7.5 -103.5v-696z" />
    <glyph glyph-name="totaothai" unicode="&#xe15;" horiz-adv-x="1765" 
d="M434 0h-270v1016q0 78 9.5 154t32.5 146.5t60.5 133t93 112t131 84t173.5 50.5l221 -230l205 230q153 -22 252.5 -86.5t157 -157t80 -205.5t22.5 -231v-1016h-271v1049q0 52 -10 112.5t-32 116t-58 99t-88 61.5l-225 -234q-7 -6 -15.5 -11t-17.5 -5q-13 0 -22 5t-15 11
l-230 234q-51 -20 -86 -64t-56.5 -98.5t-31.5 -114.5t-10 -112v-701l381 438h-156v209h431v-209z" />
    <glyph glyph-name="thothungthai" unicode="&#xe16;" horiz-adv-x="1688" 
d="M463 209h180v-209h-450v909q0 39 -5.5 78.5t-20.5 77t-41.5 70t-68.5 57.5q14 63 41 127t69 122t100.5 108.5t135.5 87.5t174.5 58t217.5 21q142 0 251.5 -27t190.5 -74.5t136 -113.5t88.5 -143.5t48 -164.5t14.5 -177v-1016h-271v1049q0 78 -21.5 155t-74 138.5
t-141 100t-221.5 40.5q-82 1 -147 -13.5t-115 -39t-85.5 -56t-59 -64.5t-35 -63.5t-13.5 -54.5q29 -17 52 -45.5t38.5 -66t24 -82t8.5 -93.5v-696z" />
    <glyph glyph-name="thothahanthai" unicode="&#xe17;" horiz-adv-x="1720" 
d="M422 1679v-266h4q172 307 549 307q169 0 280.5 -45.5t178.5 -126.5t94.5 -194t27.5 -248v-1106h-274v1135q0 78 -24 141t-68.5 107t-108 68t-143.5 24q-126 0 -220.5 -40t-157.5 -110.5t-94.5 -166.5t-31.5 -208v-950h-270v1679h258z" />
    <glyph glyph-name="thothongthai" unicode="&#xe18;" horiz-adv-x="1630" 
d="M434 831v-352q0 -80 35 -134t89.5 -87t122.5 -47t134 -14q60 0 127.5 11.5t125 42.5t95 86t37.5 142q0 47 -5 84t-22 66.5t-49 54.5t-85 49t-130.5 49t-186.5 55q-71 19 -140.5 40t-132 47t-115.5 59.5t-91.5 77.5t-59.5 101t-19 131q2 73 28.5 133t70.5 106.5
t102.5 80.5t124 56t134 32.5t134.5 10.5q143 0 265 -28t211.5 -89.5t140 -159t50.5 -235.5h-282q-2 78 -29 131.5t-74.5 86.5t-113.5 48t-144 17q-69 1 -132 -9t-111 -32t-76.5 -55t-28.5 -78q0 -57 41 -95t106.5 -65t146 -47t159.5 -41q150 -40 261 -84t184.5 -108.5
t110 -158t36.5 -231.5q0 -92 -25.5 -165.5t-70.5 -130.5t-107 -98t-136 -67t-156.5 -38.5t-168.5 -12.5q-87 0 -169 12.5t-154.5 39t-132.5 68t-103.5 98t-67.5 130t-24 164.5v352h270z" />
    <glyph glyph-name="nonuthai" unicode="&#xe19;" horiz-adv-x="1720" 
d="M1298 0l-8 270q-83 -158 -220 -234.5t-329 -76.5q-167 0 -278 45.5t-177.5 127t-94 195.5t-27.5 251v1101h270v-1134q0 -77 24.5 -139.5t69.5 -107t109.5 -69t144.5 -24.5q126 0 220 40t156 110.5t93 167t31 210.5v946h274v-1679h-258z" />
    <glyph glyph-name="bobaimaithai" unicode="&#xe1a;" horiz-adv-x="1720" 
d="M860 197q82 0 145 18.5t110 50.5t79 75.5t51.5 93t28 103t8.5 105.5v1036h274v-1003q0 -90 -13 -178t-44 -167.5t-82.5 -146.5t-128.5 -116.5t-183 -77t-245 -27.5q-140 0 -246 27.5t-183.5 77t-129 116.5t-82 146.5t-43 167.5t-12.5 178v1003h270v-1036q0 -52 9 -105.5
t29 -103t52 -93t79.5 -75.5t111 -50.5t145.5 -18.5z" />
    <glyph glyph-name="poplathai" unicode="&#xe1b;" horiz-adv-x="1720" 
d="M860 197q82 0 145 18.5t110 50.5t79 75.5t51.5 93t28 103t8.5 105.5v1770h274v-1737q0 -90 -13 -178t-44 -167.5t-82.5 -146.5t-128.5 -116.5t-183 -77t-245 -27.5q-140 0 -246 27.5t-183.5 77t-129 116.5t-82 146.5t-43 167.5t-12.5 178v1003h270v-1036q0 -52 9 -105.5
t29 -103t52 -93t79.5 -75.5t111 -50.5t145.5 -18.5z" />
    <glyph glyph-name="phophungthai" unicode="&#xe1c;" horiz-adv-x="1847" 
d="M164 1679h491v-209h-221v-938q0 -175 45 -255t131 -80q66 0 101.5 31.5t52 86.5t19.5 129t3 158v242h275v-242q0 -84 4 -158t22.5 -129t56 -86.5t105.5 -31.5q83 0 123.5 80t40.5 255v1147h270v-1216q0 -128 -28 -221t-79.5 -154.5t-124 -91t-161.5 -29.5
q-133 0 -229.5 64.5t-142.5 185.5q-38 -121 -125 -185.5t-224 -64.5q-92 0 -166.5 29.5t-127.5 91t-82 154.5t-29 221v1216z" />
    <glyph glyph-name="fofathai" unicode="&#xe1d;" horiz-adv-x="1847" 
d="M164 1679h491v-209h-221v-942q0 -175 45 -255t131 -80q66 0 101.5 31.5t52 86.5t19.5 129t3 158v242h275v-242q0 -84 4 -158t22.5 -129t56 -86.5t105.5 -31.5q83 0 123.5 80t40.5 255v1885h270v-1954q0 -128 -28 -221t-79.5 -154.5t-124 -91t-161.5 -29.5
q-133 0 -229.5 64.5t-142.5 185.5q-38 -121 -125 -185.5t-224 -64.5q-92 0 -166.5 29.5t-127.5 91t-82 154.5t-29 221v1220z" />
    <glyph glyph-name="phophanthai" unicode="&#xe1e;" horiz-adv-x="2175" 
d="M1237 1679l295 -1364h4l279 1364h299l-426 -1679h-299l-295 1335h-13l-295 -1335h-299l-426 1679h299l279 -1364h4l295 1364h299z" />
    <glyph glyph-name="fofanthai" unicode="&#xe1f;" horiz-adv-x="2175" 
d="M1237 1679l295 -1364h4l397 2098h299l-544 -2413h-299l-295 1335h-13l-295 -1335h-299l-426 1679h299l279 -1364h4l295 1364h299z" />
    <glyph glyph-name="phosamphaothai" unicode="&#xe20;" horiz-adv-x="1790" 
d="M1626 0h-274v1049q0 78 -23.5 155t-78.5 138.5t-145.5 100t-223.5 40.5q-78 1 -142.5 -13.5t-115.5 -38.5t-90 -55t-65 -64t-40.5 -64.5t-17.5 -55.5q29 -17 51.5 -45.5t38.5 -66t24 -82t8 -93.5v-905h-434v209h164v700q0 39 -5.5 78.5t-20.5 77t-41 70t-68 57.5
q21 95 74 189t144 168.5t223.5 120.5t312.5 46q142 0 252.5 -27t193.5 -74.5t140 -113.5t92.5 -143.5t51 -164.5t15.5 -177v-1016z" />
    <glyph glyph-name="momathai" unicode="&#xe21;" horiz-adv-x="1720" 
d="M164 0v1679h270v-946q0 -114 31.5 -210.5t94.5 -167t157.5 -110.5t220.5 -40q80 0 143.5 24.5t108 69t68.5 107t24 139.5v1134h274v-1101q0 -137 -27.5 -251t-94.5 -195.5t-178.5 -127t-280.5 -45.5q-189 0 -325.5 76.5t-223.5 234.5v-270h-262z" />
    <glyph glyph-name="yoyakthai" unicode="&#xe22;" horiz-adv-x="1675" 
d="M139 1282q0 79 20 139t54 104t78.5 73.5t94.5 47.5t101.5 25.5t98.5 7.5h221v-229h-152q-26 0 -65.5 -3.5t-77 -20.5t-64 -53.5t-26.5 -102.5q0 -74 19.5 -120t53.5 -72t80.5 -36.5t100.5 -13.5h131v-225h-131q-57 -3 -104 -12.5t-80 -37.5t-51.5 -81t-18.5 -144
q0 -84 34 -147t90.5 -105t130.5 -62.5t154 -20.5q89 0 164.5 23.5t130 76.5t85 138t30.5 208v1040h270v-1097q0 -152 -54 -268.5t-146.5 -195.5t-216 -119t-263.5 -40q-87 0 -172.5 15t-162.5 45t-143.5 75.5t-114.5 107.5t-75.5 140.5t-27.5 173.5q0 71 11.5 132.5
t38.5 112.5t71 89.5t109 62.5q-74 29 -118.5 72t-68.5 92.5t-31.5 102.5t-7.5 102z" />
    <glyph glyph-name="roruathai" unicode="&#xe23;" horiz-adv-x="1442" 
d="M365 541q0 -92 29 -157t78.5 -106t115.5 -60.5t141 -19.5q55 0 115 13t109.5 44t82 81.5t32.5 124.5q0 69 -29 117t-79.5 81.5t-119 56.5t-146.5 42q-64 16 -130.5 36.5t-128 48.5t-115.5 65t-94.5 86t-63.5 111t-23 141q0 81 22.5 147.5t62 118t93 89.5t115.5 63
t128.5 37t133.5 12q122 0 231.5 -29.5t192 -94t131 -166.5t49.5 -247h-274q0 70 -22.5 128t-64 99.5t-99 64.5t-126.5 23q-62 0 -117 -15t-96 -45t-64.5 -75.5t-23.5 -105.5q0 -62 30 -104.5t81 -72.5t118 -50t141 -38q133 -33 237.5 -70.5t176 -92.5t109 -133t37.5 -190
q0 -103 -25.5 -183t-69.5 -139t-104.5 -99.5t-130 -65.5t-146 -35.5t-152.5 -10.5q-84 0 -163 14t-148.5 44t-127.5 76t-99.5 110t-64.5 146t-23 185h278z" />
    <glyph glyph-name="ruthai" unicode="&#xe24;" horiz-adv-x="1688" 
d="M463 209h180v-209h-450v909q0 39 -5.5 78.5t-20.5 77t-41.5 70t-68.5 57.5q14 63 41 127t69 122t100.5 108.5t135.5 87.5t174.5 58t217.5 21q142 0 251.5 -27t190.5 -74.5t136 -113.5t88.5 -143.5t48 -164.5t14.5 -177v-1561h-271v1594q0 78 -21.5 155t-74 138.5
t-141 100t-221.5 40.5q-123 1 -208 -26.5t-138 -71t-79 -95.5t-30 -98q29 -17 52 -45.5t38.5 -66t24 -82t8.5 -93.5v-696z" />
    <glyph glyph-name="lolingthai" unicode="&#xe25;" horiz-adv-x="1679" 
d="M1244 786q-23 5 -82.5 8t-140.5 0q-64 -3 -135.5 -10t-141 -22.5t-133.5 -40t-112.5 -62t-77 -89t-28.5 -119.5q0 -78 30 -129t78.5 -81t109 -41.5t122.5 -11.5q47 0 87 6t77 15v-213q-56 -16 -110 -24.5t-119 -8.5q-112 0 -212.5 25t-176 81t-120 144.5t-44.5 216.5
q0 125 41.5 217.5t111.5 158t162.5 107t194 65t206.5 32.5t200 10q61 0 114.5 -2t98.5 -4v152q0 100 -33 162t-86.5 96.5t-120 46.5t-132.5 12q-87 0 -161 -16t-128.5 -54t-87 -101t-36.5 -157h-279q3 104 31 186t76 144t113 105t143.5 70.5t167 39.5t182.5 12
q68 0 140.5 -9t142 -31.5t131 -61.5t108 -99t73.5 -143t27 -194v-1174h-271v786z" />
    <glyph glyph-name="luthai" unicode="&#xe26;" horiz-adv-x="1790" 
d="M1626 -545h-274v1594q0 78 -23.5 155t-78.5 138.5t-145.5 100t-223.5 40.5q-78 1 -142.5 -13.5t-115.5 -38.5t-90 -55t-65 -64t-40.5 -64.5t-17.5 -55.5q29 -17 51.5 -45.5t38.5 -66t24 -82t8 -93.5v-905h-434v209h164v700q0 39 -5.5 78.5t-20.5 77t-41 70t-68 57.5
q21 95 74 189t144 168.5t223.5 120.5t312.5 46q142 0 252.5 -27t193.5 -74.5t140 -113.5t92.5 -143.5t51 -164.5t15.5 -177v-1561z" />
    <glyph glyph-name="wowaenthai" unicode="&#xe27;" horiz-adv-x="1524" 
d="M1126 840q0 167 -27 289.5t-77 203t-122 119.5t-163 39q-71 0 -131.5 -24t-106.5 -71.5t-75 -119t-35 -166.5h-278q4 133 51 245t128.5 193t195 126.5t251.5 45.5q174 0 301 -63.5t210.5 -179t124 -277.5t40.5 -360t-40.5 -360t-124 -277t-210.5 -177.5t-301 -62.5
q-138 0 -251.5 45t-195 126t-128.5 193t-51 246h278q6 -95 35 -166.5t75 -119t106.5 -71t131.5 -23.5q91 0 163 38t122 117.5t77 201.5t27 290z" />
    <glyph glyph-name="sosalathai" unicode="&#xe28;" horiz-adv-x="1737" 
d="M434 0h-270v1004q0 91 12 179t42 167t81.5 146.5t129.5 116t186.5 76t252.5 27.5q99 0 179.5 -13t148.5 -32q46 0 80 16t56.5 41.5t34 56.5t13.5 62h295q-2 -43 -16 -91t-45 -92.5t-79.5 -79.5t-117.5 -52q43 -46 73 -107t48.5 -130t26.5 -143.5t8 -147.5v-1004h-275
v1040q0 51 -7 104t-24.5 102t-48 92.5t-78.5 75.5t-115 50.5t-157 18.5t-157 -18.5t-115.5 -50.5t-79.5 -75.5t-49.5 -92.5t-25.5 -102t-7 -104v-376q46 89 101 151.5t121.5 102t147.5 57t179 16.5v-229q-147 0 -251.5 -41t-170.5 -117.5t-96.5 -187t-30.5 -248.5v-168z" />
    <glyph glyph-name="sorusithai" unicode="&#xe29;" horiz-adv-x="1720" 
d="M795 815v336h270v-123h217v651h274v-651h152v-213h-152v-139q0 -90 -11.5 -178t-41 -167.5t-80 -146.5t-128 -116.5t-185 -77t-250.5 -27.5q-144 0 -252 27.5t-185 77t-127.5 116.5t-79.5 146.5t-40.5 167.5t-11.5 178v1003h270v-1036q0 -52 7 -105.5t24.5 -103t48 -93
t78 -75.5t113.5 -50.5t155 -18.5t155 18.5t113 50.5t77 75.5t47 93t23.5 103t6.5 105.5v172h-487z" />
    <glyph glyph-name="sosuathai" unicode="&#xe2a;" horiz-adv-x="1679" 
d="M1244 786q-23 5 -82.5 8t-140.5 0q-64 -3 -135.5 -10t-141 -22.5t-133.5 -40t-112.5 -62t-77 -89t-28.5 -119.5q0 -78 30 -129t78.5 -81t109 -41.5t122.5 -11.5q47 0 87 6t77 15v-213q-56 -16 -110 -24.5t-119 -8.5q-112 0 -212.5 25t-176 81t-120 144.5t-44.5 216.5
q0 125 41.5 217.5t111.5 158t162.5 107t194 65t206.5 32.5t200 10q61 0 114.5 -2t98.5 -4v152q0 100 -33 162t-86.5 96.5t-120 46.5t-132.5 12q-87 0 -161 -16t-128.5 -54t-87 -101t-36.5 -157h-279q3 104 31 186t76 144t113 105t143.5 70.5t167 39.5t182.5 12q30 0 65.5 -3
t73 -9.5t75 -16t70.5 -21.5q45 1 81 19t61.5 44.5t39.5 58.5t16 63h295q0 -43 -17 -92t-52.5 -94.5t-89.5 -82.5t-127 -55q28 -27 52.5 -63.5t41.5 -81.5t27 -96.5t10 -107.5v-1174h-271v786z" />
    <glyph glyph-name="hohipthai" unicode="&#xe2b;" horiz-adv-x="1683" 
d="M434 1679v-655l758 655h401l-389 -327q95 -29 156.5 -84t97 -130.5t49 -169.5t13.5 -202v-766h-271v799q0 69 -15 132t-46 112.5t-79 83t-114 44.5l-561 -483v-688h-270v1679h270z" />
    <glyph glyph-name="lochulathai" unicode="&#xe2c;" horiz-adv-x="2146" 
d="M1688 0h-299l-324 1081h-12l-324 -1081h-303l-377 1679h307l226 -1376h8l319 1081h299l320 -1081h8l160 807q17 94 21 168t-14.5 126t-64 79.5t-127.5 27.5v172q78 3 142 18.5t111 47t75.5 80t36.5 117.5h319q-11 -86 -46 -149t-86.5 -106t-114.5 -68t-129 -34
q52 -15 91.5 -50t61.5 -89t23.5 -126t-21.5 -161z" />
    <glyph glyph-name="oangthai" unicode="&#xe2d;" horiz-adv-x="1658" 
d="M111 1159q24 124 80 227.5t144.5 177.5t211 115t280.5 41q201 0 341 -68t227.5 -187t126.5 -280.5t39 -348.5q0 -117 -17.5 -227t-54.5 -207t-95 -177.5t-139 -139t-186.5 -90.5t-237.5 -32q-133 0 -238.5 32t-186 89.5t-137.5 138t-93 177.5t-53 207.5t-17 228.5v94h725
v-209h-442q0 -118 32 -215.5t90.5 -167t140 -107.5t179.5 -38q105 0 188.5 43t142 125t89.5 201.5t31 273.5q0 156 -28.5 277t-85.5 203t-142 124.5t-199 42.5q-86 0 -160 -23t-130 -65t-92.5 -102t-47.5 -134h-286z" />
    <glyph glyph-name="honokhukthai" unicode="&#xe2e;" horiz-adv-x="1655" 
d="M111 1159q24 124 80 227.5t144.5 177.5t211 115t280.5 41q169 0 291 -49q42 3 72.5 19.5t51.5 41t31.5 54.5t12.5 61h299q-2 -43 -16.5 -90t-44.5 -90t-76.5 -78t-112.5 -53q60 -60 103 -136t70 -165t40 -189.5t13 -209.5q0 -117 -17.5 -227t-54.5 -207t-95 -177.5
t-139 -139t-186.5 -90.5t-237.5 -32q-133 0 -238.5 32t-186 89.5t-137.5 138t-93 177.5t-53 207.5t-17 228.5v94h725v-209h-442q0 -118 32 -215.5t90.5 -167t140 -107.5t179.5 -38q105 0 188.5 43t142 125t89.5 201.5t31 273.5q0 156 -28.5 277t-85.5 203t-142 124.5
t-199 42.5q-86 0 -157 -22.5t-125.5 -64.5t-92 -102t-55.5 -135h-286z" />
    <glyph glyph-name="paiyannoithai" unicode="&#xe2f;" horiz-adv-x="1688" 
d="M1253 0v860q-35 -45 -84 -80t-108.5 -59t-128 -36.5t-141.5 -12.5q-165 0 -289 38.5t-207.5 109t-125.5 170t-42 222.5q0 88 22.5 157t61.5 121t91.5 88t111.5 58.5t122 32.5t123 10h238v-229h-238q-130 0 -189.5 -59t-59.5 -183q0 -57 16.5 -112.5t58.5 -99.5t113 -71.5
t180 -27.5q115 0 203.5 22t149 67.5t91.5 116t31 167.5v409h271v-1679h-271z" />
    <glyph glyph-name="saraathai" unicode="&#xe30;" horiz-adv-x="963" 
d="M164 1118v336h262v-123h401v-213h-663zM164 287v331h262v-122h401v-209h-663z" />
    <glyph glyph-name="maihanakatthai" unicode="&#xe31;" 
d="M-1008 1962v352h263v-143h806v-209h-1069z" />
    <glyph glyph-name="saraaathai" unicode="&#xe32;" horiz-adv-x="1380" 
d="M53 1192q0 85 23 156.5t63.5 129.5t96.5 101.5t121.5 73t138 44.5t147.5 15q123 0 228 -33.5t182 -101.5t120.5 -172.5t43.5 -245.5v-1159h-271v1102q0 199 -77.5 290t-225.5 91q-132 0 -213 -73.5t-90 -217.5h-287z" />
    <glyph glyph-name="saraamthai" unicode="&#xe33;" horiz-adv-x="1380" 
d="M-588 2224q0 58 22 110t60.5 90t89.5 60.5t110 22.5q57 0 108.5 -22.5t90 -60.5t61.5 -90t23 -110q0 -59 -23 -110t-61.5 -89.5t-90 -60.5t-108.5 -22q-59 0 -110 22t-89.5 60.5t-60.5 89.5t-22 110zM-421 2224q0 -23 9.5 -44t25 -36.5t36.5 -25t44 -9.5t44 9.5t36.5 25
t25 36.5t9.5 44t-9.5 44t-25 36.5t-36.5 25t-44 9.5t-44 -9.5t-36.5 -25t-25 -36.5t-9.5 -44zM53 1192q0 85 23 156.5t63.5 129.5t96.5 101.5t121.5 73t138 44.5t147.5 15q123 0 228 -33.5t182 -101.5t120.5 -172.5t43.5 -245.5v-1159h-271v1102q0 199 -77.5 290t-225.5 91
q-132 0 -213 -73.5t-90 -217.5h-287z" />
    <glyph glyph-name="saraithai" unicode="&#xe34;" 
d="M-1556 1962l106 209h1286v-209h-1392z" />
    <glyph glyph-name="saraiithai" unicode="&#xe35;" 
d="M-1450 2171h1024v258h262v-467h-1392z" />
    <glyph glyph-name="sarauethai" unicode="&#xe36;" 
d="M-496 2228q0 -21 8.5 -40t23.5 -32.5t34.5 -21.5t40.5 -8t40.5 8t34 21.5t23 32.5t8.5 40q0 23 -8.5 42.5t-23 34t-34 22.5t-40.5 8t-40.5 -8t-34.5 -22.5t-23.5 -34t-8.5 -42.5zM-655 2228q0 55 20.5 103.5t56.5 84.5t84.5 57t104.5 21q55 0 103.5 -21t84.5 -57
t57 -84.5t21 -103.5t-21 -103.5t-57 -84.5t-84.5 -57t-103.5 -21h-1167l106 209h799q-3 15 -3.5 30t-0.5 27z" />
    <glyph glyph-name="saraueethai" unicode="&#xe37;" 
d="M-1450 2171h590v258h258v-258h180v258h258v-467h-1392z" />
    <glyph glyph-name="sarauthai" unicode="&#xe38;" 
d="M-422 -819v397h-147v201h405v-598h-258z" />
    <glyph glyph-name="sarauuthai" unicode="&#xe39;" 
d="M-1167 -221h409v-201q0 -96 40.5 -144t127.5 -48q168 0 168 192v201h258v-201q0 -81 -22 -153.5t-72.5 -126.5t-132 -85.5t-199.5 -31.5q-117 0 -198.5 28.5t-133 81t-75 125.5t-23.5 162h-147v201z" />
    <glyph glyph-name="phinthuthai" unicode="&#xe3a;" 
d="M-504 -348q0 41 16 77.5t43 64t63.5 43.5t78.5 16q40 0 75.5 -16t62.5 -43.5t43 -64t16 -77.5q0 -40 -16 -76t-43 -63t-62.5 -42.5t-75.5 -15.5q-42 0 -78.5 15.5t-63.5 42.5t-43 63t-16 76z" />
    <glyph glyph-name="PUCR2005" unicode="&#xe3e;" 
 />
    <glyph glyph-name="bahtthai" unicode="&#xe3f;" horiz-adv-x="1905" 
d="M766 0h-557v1955h557v192h246v-192h61q52 0 108.5 -4t109 -13t97.5 -22.5t74 -32.5q49 -29 92.5 -69.5t75.5 -91.5t51 -113.5t19 -134.5q0 -157 -67 -266.5t-203 -169.5q87 -23 153.5 -67t111.5 -105.5t68 -137.5t23 -163q0 -105 -40 -206.5t-117.5 -181t-191.5 -128.5
t-261 -49h-164v-204h-246v204zM1012 885v-652h127q89 0 157.5 23.5t115.5 67.5t71 108t24 145q0 92 -37 151.5t-97 94.5t-135.5 48.5t-152.5 13.5h-73zM766 233v652h-279v-652h279zM766 1122v596h-279v-596h279zM1425 1422q0 101 -33.5 160t-90 89t-131.5 38.5t-158 8.5
l4 -596q109 0 186.5 18t127 55.5t72.5 93.5t23 133z" />
    <glyph glyph-name="saraethai" unicode="&#xe40;" horiz-adv-x="684" 
d="M205 0v1679h274v-1679h-274z" />
    <glyph glyph-name="saraaethai" unicode="&#xe41;" horiz-adv-x="1167" 
d="M733 0v1679h271v-1679h-271zM164 0v1679h270v-1679h-270z" />
    <glyph glyph-name="saraothai" unicode="&#xe42;" horiz-adv-x="803" 
d="M250 1946q0 66 -20 116t-54.5 83t-79.5 50t-96 17l57 217h770l123 -217h-540q26 -20 46.5 -49.5t34.5 -64t21.5 -72t7.5 -72.5v-1745h176v-209h-446v1946z" />
    <glyph glyph-name="saraaimaimuanthai" unicode="&#xe43;" horiz-adv-x="803" 
d="M520 209h176v-209h-446v1614q0 67 4.5 118t19.5 94.5t43 84t76 88.5q18 18 40.5 40t41.5 44.5t32 45t13 42.5q0 24 -6.5 47.5t-24 42t-49 30t-80.5 11.5q-95 0 -141.5 -66.5t-46.5 -183.5h-258q0 117 37 202.5t98.5 141.5t142.5 83.5t168 27.5q78 0 151 -17.5t128.5 -56
t89 -99.5t33.5 -147q0 -45 -12.5 -78t-35.5 -64t-55.5 -64.5t-72.5 -79.5q-25 -29 -38.5 -65.5t-19.5 -75t-7 -76.5t-1 -70v-1405z" />
    <glyph glyph-name="saraaimaimalaithai" unicode="&#xe44;" horiz-adv-x="803" 
d="M250 1954q0 35 7.5 72.5t21.5 72t34.5 64t46.5 49.5h-540l123 217h770l57 -217q-51 0 -96 -17t-79.5 -50t-54.5 -83t-20 -116v-1737h176v-209h-446v1954z" />
    <glyph glyph-name="lakkhangyaothai" unicode="&#xe45;" horiz-adv-x="1380" 
d="M53 1192q0 85 23 156.5t63.5 129.5t96.5 101.5t121.5 73t138 44.5t147.5 15q123 0 228 -33.5t182 -101.5t120.5 -172.5t43.5 -245.5v-1704h-271v1647q0 199 -77.5 290t-225.5 91q-132 0 -213 -73.5t-90 -217.5h-287z" />
    <glyph glyph-name="maiyamokthai" unicode="&#xe46;" horiz-adv-x="1589" 
d="M381 1094q1 -43 10.5 -85t31.5 -75t60.5 -53.5t98.5 -20.5h36v-229h-36q-95 0 -180.5 26t-150 82t-102.5 142.5t-38 208.5q0 117 19 217.5t71 179t145 132.5t240 77l188 -197l172 197q106 -9 182.5 -39.5t129 -77t84 -107t48 -130.5t22 -146.5t5.5 -155.5v-1581h-274
v1614q0 52 -3 112.5t-16.5 114t-43 92t-81.5 46.5l-192 -201q-6 -6 -15 -11t-18 -5q-12 0 -21.5 5t-15.5 11l-196 201q-51 -20 -83.5 -54.5t-50.5 -79.5t-23.5 -98.5t-2.5 -111.5z" />
    <glyph glyph-name="maitaikhuthai" unicode="&#xe47;" 
d="M-1085 2306q0 -15 4 -35.5t17 -39t37 -31.5t64 -13q32 0 56.5 11.5t41 32.5t24 49.5t5.5 62.5h181q-2 -34 5 -62.5t22.5 -49.5t39.5 -32.5t56 -11.5q35 0 58 12.5t35 33.5t14.5 49.5t-1.5 60.5h205q12 -95 -6 -163.5t-57.5 -112.5t-95 -64.5t-116.5 -20.5
q-52 0 -94.5 17.5t-74 44.5t-51 59.5t-25.5 63.5q-3 -31 -26 -63.5t-59 -59.5t-82.5 -44.5t-95.5 -17.5q-93 0 -156.5 32t-102.5 80.5t-55.5 105.5t-16.5 106q0 95 35.5 161.5t94 108t135 60t157.5 18.5h794v-192h-766q-69 0 -109 -16t-60 -39.5t-25.5 -50.5t-5.5 -50z" />
    <glyph glyph-name="maiekthai" unicode="&#xe48;" 
d="M-426 3060h262v-443h-262v443z" />
    <glyph glyph-name="maithothai" unicode="&#xe49;" 
d="M-741 2621v250h-144v201h373v-250q91 0 162.5 19.5t121 53.5t75.5 79.5t26 97.5h250q0 -87 -39.5 -168.5t-119.5 -144.5t-200.5 -100.5t-283.5 -37.5h-221z" />
    <glyph glyph-name="maitrithai" unicode="&#xe4a;" 
d="M-270 2617q0 18 -4.5 48t-14 58.5t-23.5 49t-32 20.5t-32 -17.5t-23.5 -44t-14 -57.5t-4.5 -57h-176q0 26 -4.5 57t-13.5 57.5t-22 44t-30 17.5q-18 0 -32 -20.5t-23 -49t-13.5 -58.5t-4.5 -48h-209q-6 100 12.5 174t53.5 123t83 73t101 24q62 0 112.5 -30.5t75.5 -80.5
q25 46 77 78.5t120 32.5q38 0 73 -13.5t63.5 -39.5t48.5 -63t28 -85q20 17 39.5 46.5t35.5 65.5t25.5 74t9.5 72h226q0 -69 -26 -143.5t-69.5 -138.5t-102 -110.5t-122.5 -58.5h-188z" />
    <glyph glyph-name="maichattawathai" unicode="&#xe4b;" 
d="M-169 2835v-218h-252v218h-242v191h242v214h252v-214h242v-191h-242z" />
    <glyph glyph-name="thanthakhatthai" unicode="&#xe4c;" 
d="M-82 2695q-151 0 -231 -58t-80 -183h-254q0 103 39 185t111.5 139.5t177.5 88.5t237 33v-205z" />
    <glyph glyph-name="nikhahitthai" unicode="&#xe4d;" 
d="M-588 2224q0 58 22 110t60.5 90t89.5 60.5t110 22.5q57 0 108.5 -22.5t90 -60.5t61.5 -90t23 -110q0 -59 -23 -110t-61.5 -89.5t-90 -60.5t-108.5 -22q-59 0 -110 22t-89.5 60.5t-60.5 89.5t-22 110zM-421 2224q0 -23 9.5 -44t25 -36.5t36.5 -25t44 -9.5t44 9.5t36.5 25
t25 36.5t9.5 44t-9.5 44t-25 36.5t-36.5 25t-44 9.5t-44 -9.5t-36.5 -25t-25 -36.5t-9.5 -44z" />
    <glyph glyph-name="yamakkanthai" unicode="&#xe4e;" 
d="M20 2421q-69 0 -113 -10t-68.5 -32t-34 -58.5t-9.5 -88.5v-45h-57q-62 0 -102 -15.5t-64 -45t-33.5 -71t-9.5 -93.5h-254q0 74 17.5 140t54.5 119.5t95.5 91t139.5 54.5q11 58 41.5 105.5t84 81t131 53.5t181.5 23v-209z" />
    <glyph glyph-name="fongmanthai" unicode="&#xe4f;" horiz-adv-x="2028" 
d="M123 836q0 122 31.5 234.5t89.5 210t139 178t180 137.5t212.5 88.5t236.5 31.5q121 0 232.5 -31.5t209 -88.5t177.5 -137.5t137 -178t88.5 -210t31.5 -234.5t-31.5 -234.5t-88.5 -210.5t-137 -178.5t-177.5 -137.5t-209 -88.5t-232.5 -31.5q-123 0 -236.5 31.5
t-212.5 88.5t-180 137.5t-139 178.5t-89.5 210.5t-31.5 234.5zM352 844q0 -90 23.5 -174t66 -157.5t102.5 -134t133 -103.5t158 -67t177 -24q89 0 172 24t155 67t132 103.5t102.5 134t66 157.5t23.5 174t-23.5 173t-66 155.5t-102.5 132t-132 102t-155 65.5t-172 23
q-92 0 -177 -23t-158 -65.5t-133 -102t-102.5 -132t-66 -155.5t-23.5 -173zM541 844q0 94 37.5 178t101.5 147.5t149.5 100.5t182.5 37q94 0 177 -37t145.5 -100.5t99 -147.5t36.5 -178q0 -97 -36.5 -182t-99 -148.5t-145.5 -100t-177 -36.5q-97 0 -182.5 36.5t-149.5 100
t-101.5 148.5t-37.5 182zM741 844q0 -57 20.5 -106.5t56.5 -86t85.5 -57.5t108.5 -21q54 0 101 21t82 57.5t55 86t20 106.5q0 54 -20 101.5t-55 83t-82 56.5t-101 21q-59 0 -108.5 -21t-85.5 -56.5t-56.5 -83t-20.5 -101.5z" />
    <glyph glyph-name="zerothai" unicode="&#xe50;" horiz-adv-x="1774" 
d="M1647 774q0 -152 -27 -271t-76.5 -208.5t-118.5 -151t-153.5 -100t-181.5 -55.5t-201 -17t-201.5 17.5t-182 56t-154.5 100.5t-119.5 151.5t-77 207.5t-27.5 270q0 158 52.5 288t150.5 222.5t239.5 143.5t319.5 51q177 0 317.5 -51t238.5 -143.5t150 -222.5t52 -288z
M1384 717q0 146 -40 248t-108 166t-157.5 93t-189.5 29t-190.5 -29t-159.5 -93t-109.5 -166t-40.5 -248q0 -114 36 -209.5t102 -164.5t158 -107.5t204 -38.5t203.5 38.5t156 107.5t100 164.5t35.5 209.5z" />
    <glyph glyph-name="onethai" unicode="&#xe51;" horiz-adv-x="1761" 
d="M791 -25q-92 0 -189.5 6t-194 28.5t-190.5 68t-180 123.5l213 180q49 -57 108.5 -95t127 -60.5t142 -32t154.5 -9.5q126 0 230 38.5t179 113.5t116 185t41 253q0 111 -27.5 202t-86 156.5t-148.5 101.5t-214 36q-101 0 -183 -26.5t-139.5 -70t-88.5 -99.5t-31 -116
q0 -55 20.5 -108.5t69 -92.5t129.5 -56.5t203 -0.5v-188q-53 -12 -96 -16t-80 -4q-111 0 -208.5 31.5t-170.5 89.5t-115.5 139.5t-42.5 181.5q0 98 29 177t80 140t120 105t149.5 72t169 41.5t177.5 13.5q161 0 302 -38.5t246 -123.5t165.5 -219t60.5 -324q0 -180 -58 -327.5
t-167.5 -253.5t-266.5 -164t-355 -58z" />
    <glyph glyph-name="twothai" unicode="&#xe52;" horiz-adv-x="1999" 
d="M147 1208q0 68 -8 115.5t-25 77.5t-43 43.5t-63 13.5l41 230q81 0 148.5 -26t115.5 -78.5t74.5 -132.5t26.5 -189v-631q0 -88 39 -164t117.5 -132.5t196 -89t273.5 -32.5q149 0 253.5 30.5t170 81t95.5 116.5t30 137v426q0 55 -14.5 96t-39.5 70t-58.5 46t-71.5 25
l-213 -192l-213 180q-26 0 -54.5 -13t-52 -39.5t-38.5 -66.5t-15 -94v-127q-2 -49 -0.5 -98t14.5 -88.5t42 -64t83 -24.5h103v-204h-131q-89 0 -152 24t-105 63t-66 88.5t-36.5 102t-16.5 103t-5 90.5v110q0 92 34 174.5t95.5 147.5t148.5 108.5t193 57.5l172 -152l160 152
q106 -6 197.5 -41.5t159.5 -94t107 -137t39 -170.5v-409q0 -113 -27 -204.5t-75.5 -163.5t-116 -124.5t-149 -87t-174.5 -51t-191 -16.5h-143q-198 0 -353 48.5t-261.5 137.5t-162 214.5t-55.5 278.5v549z" />
    <glyph glyph-name="threethai" unicode="&#xe53;" horiz-adv-x="1806" 
d="M664 1221q-39 -3 -83.5 -24.5t-82.5 -71t-63 -133t-25 -210.5v-118q0 -51 0.5 -104t6 -102t17.5 -92.5t34.5 -75.5t58 -50.5t87.5 -18.5q28 0 81 3.5t112 13.5v-230q-20 -6 -55 -11t-75.5 -8t-81 -3.5t-71.5 2.5q-96 13 -162 51t-109 92.5t-66 121.5t-33.5 137
t-12.5 139.5t-2 129.5v119q0 172 37.5 297.5t109 210t175 131.5t235.5 62l205 -189q56 44 113 94.5t112 94.5q140 -9 242 -57t168.5 -123t98.5 -171t32 -202v-926h-270v926q0 60 -20.5 114.5t-54.5 95.5t-77.5 64.5t-89.5 20.5q-29 -25 -61.5 -52.5t-65.5 -55.5t-65.5 -55
t-61.5 -50z" />
    <glyph glyph-name="fourthai" unicode="&#xe54;" horiz-adv-x="1794" 
d="M864 1217q-107 0 -193.5 -24.5t-147.5 -71.5t-93.5 -115.5t-32.5 -157.5v-201q0 -89 24.5 -165.5t76 -132.5t131 -88t190.5 -32h70q-23 20 -45.5 48.5t-39.5 64t-27.5 78.5t-10.5 92q0 22 3 55.5t16.5 70.5t40.5 74t75.5 66t121 47.5t177.5 18.5v-226q-65 0 -100.5 -15.5
t-52 -37t-20 -44.5t-3.5 -38q0 -34 13 -66t33.5 -60t46.5 -51.5t52.5 -40.5t50.5 -26.5t42 -9.5h409v-229h-889q-130 0 -229 28t-172 75.5t-121.5 111t-78 134t-42 144t-12.5 142.5v168q0 166 54 287.5t154 201.5t241.5 119t316.5 39h283q66 0 108 16t66.5 46t33.5 72.5
t9 94.5h278q0 -54 -8 -109.5t-28 -107t-55 -96t-88.5 -78t-128.5 -52.5t-175 -19h-324z" />
    <glyph glyph-name="fivethai" unicode="&#xe55;" horiz-adv-x="1806" 
d="M803 1516q0 -47 27.5 -77t70.5 -30q50 0 78.5 30t28.5 77q0 49 -28.5 77.5t-78.5 28.5q-43 0 -70.5 -28.5t-27.5 -77.5zM1196 1507q0 -9 -1 -19.5t-3 -18.5q-2 -10 -4 -19q64 3 104.5 20.5t62.5 47.5t30 71t8 90h278q0 -54 -8 -109.5t-28 -107t-55 -96t-88.5 -78
t-128.5 -52.5t-175 -19h-307q-108 0 -197 -20.5t-152.5 -64.5t-99 -114t-35.5 -170v-201q0 -89 24.5 -165.5t76 -132.5t131 -88t190.5 -32h70q-23 20 -45.5 48.5t-39.5 64t-27.5 78.5t-10.5 92q0 22 3 55.5t16.5 70.5t40.5 74t75.5 66t121 47.5t177.5 18.5v-226
q-65 0 -100.5 -15.5t-52 -37t-20 -44.5t-3.5 -38q0 -34 13 -66t33.5 -60t46.5 -51.5t52.5 -40.5t50.5 -26.5t42 -9.5h409v-229h-889q-130 0 -229 28t-172 75.5t-121.5 111t-78 134t-42 144t-12.5 142.5v168q0 146 39 253t108.5 182t166.5 121t214 71q-6 12 -11 34t-5 43
q0 58 21.5 110t59 90t87 60.5t106.5 22.5q61 0 113 -22.5t90 -60.5t59 -90t21 -110z" />
    <glyph glyph-name="sixthai" unicode="&#xe56;" horiz-adv-x="1815" 
d="M446 1335q48 25 101.5 48.5t118.5 43t144 32.5t177 16q141 4 250.5 -20.5t191 -72t137 -113.5t90 -144.5t49.5 -167t15 -179.5v-106q0 -141 -49 -269.5t-147 -224.5t-244.5 -150t-341.5 -48q-143 4 -261.5 40t-203 99t-131.5 151t-47 197q0 101 34 174.5t96 121
t149.5 70.5t195.5 23h107v-205h-95q-66 0 -108 -14.5t-66.5 -40.5t-33.5 -62t-9 -79q0 -51 28 -95.5t79 -77.5t123 -52.5t159 -20.5q95 -2 184 27t157.5 87t109.5 144.5t41 200.5v102q0 123 -30.5 212.5t-88.5 147.5t-140.5 85t-187.5 26q-83 -2 -163.5 -15.5t-160 -40.5
t-160 -69t-163.5 -100l-278 463l209 127z" />
    <glyph glyph-name="seventhai" unicode="&#xe57;" horiz-adv-x="2130" 
d="M1724 1262q0 109 26.5 189t74.5 132.5t115.5 78.5t148.5 26l41 -230q-37 0 -63 -13.5t-43 -43.5t-25 -77.5t-8 -115.5v-467q0 -153 -37 -283t-114.5 -229t-196.5 -162t-283 -83l-213 155q60 61 93 121.5t49 122.5t19 128t3 140v127q0 106 -18 183.5t-48.5 130t-70.5 80.5
t-84 36l-209 -213l-201 217q-38 -2 -81.5 -26.5t-80 -77.5t-60.5 -136.5t-24 -201.5v-111q0 -37 1.5 -83t7.5 -94t19 -93.5t37 -81t60 -57t88 -21.5q11 0 28.5 1t37.5 2.5t40.5 4t37.5 5.5l4 -226q-19 -5 -47 -10.5t-60.5 -10t-67.5 -5t-67 5.5q-92 21 -157 61t-108 93.5
t-68 116.5t-37.5 129t-15.5 131.5t-3 123.5v115q0 163 37 287.5t107.5 212t173.5 138.5t235 66l164 -180l172 176q152 -18 251.5 -77t158.5 -150t82.5 -208.5t23.5 -252.5v-119q-2 -48 -5 -107t-10.5 -116.5t-21.5 -108t-37 -81.5q61 18 104.5 65t71.5 111.5t40.5 140
t12.5 150.5v549z" />
    <glyph glyph-name="eightthai" unicode="&#xe58;" horiz-adv-x="1802" 
d="M831 1212q-106 0 -182 -30.5t-124.5 -80.5t-71.5 -115t-23 -134v-315q0 -59 21.5 -111.5t56 -93.5t76.5 -66t84 -28q58 52 124 108t121 109l263 -217q46 1 85.5 15t68.5 46t46 86t17 135q0 35 -5.5 71t-21 67t-44.5 53t-77 30q-12 3 -34.5 3.5t-47.5 0.5v201h90
q90 -5 155.5 -25t110.5 -51.5t72.5 -72t42.5 -86t20 -94.5t5 -97q0 -132 -30 -232.5t-94 -168t-163 -101.5t-237 -34l-222 184l-204 -184q-135 9 -238 56t-172 121.5t-104 171t-35 204.5v270q0 150 44.5 270t132 204t218.5 128.5t305 44.5h373q64 0 106 15.5t67 45t34.5 71
t9.5 93.5h274q0 -54 -8 -110t-28 -107.5t-54.5 -97t-88 -79.5t-127.5 -53.5t-173 -19.5h-414z" />
    <glyph glyph-name="ninethai" unicode="&#xe59;" horiz-adv-x="1769" 
d="M1331 1475q64 0 102.5 12.5t58.5 37.5t26 63.5t6 90.5h270q0 -54 -6.5 -107.5t-24 -102.5t-49 -90.5t-82 -72t-123 -48t-170.5 -17.5h-24q-16 0 -28.5 -8t-24.5 -21l-95 -98l529 -1114h-287l-471 1008q-56 114 -123 173.5t-160 59.5q-54 0 -99.5 -21.5t-78.5 -74
t-52 -141t-19 -222.5v-159q1 -41 5 -86.5t13.5 -89.5t26 -84.5t42.5 -71t63 -48.5t87 -18q19 0 50 3t65 10l37 -226q-19 -5 -47 -9.5t-61 -8t-68.5 -4.5t-69.5 2q-95 11 -163 45.5t-114 85t-73 114t-41.5 132.5t-18.5 140t-4 138v123q0 174 26.5 305.5t88 220.5t162 134
t247.5 45q28 0 60.5 -0.5t65.5 -3t63 -8.5t53 -17q43 -22 75.5 -54t63.5 -81l140 139q6 6 20 15.5t33 9.5h98z" />
    <glyph glyph-name="angkhankhuthai" unicode="&#xe5a;" horiz-adv-x="2257" 
d="M1253 0v860q-35 -45 -84 -80t-108.5 -59t-128 -36.5t-141.5 -12.5q-165 0 -289 38.5t-207.5 109t-125.5 170t-42 222.5q0 88 22.5 157t61.5 121t91.5 88t111.5 58.5t122 32.5t123 10h238v-229h-238q-130 0 -189.5 -59t-59.5 -183q0 -57 16.5 -112.5t58.5 -99.5t113 -71.5
t180 -27.5q115 0 203.5 22t149 67.5t91.5 116t31 167.5v409h271v-1679h-271zM1823 0v1679h270v-1679h-270z" />
    <glyph glyph-name="khomutthai" unicode="&#xe5b;" horiz-adv-x="3551" 
d="M2847 885l-17 -29q-46 -65 -103.5 -153t-113.5 -199q-55 114 -114 221.5t-115 187.5q-29 -38 -62.5 -90.5t-68 -116t-67 -137.5t-60.5 -155q-59 164 -130 297.5t-136 226.5q-8 -132 -43.5 -252t-93.5 -223t-137 -186t-174.5 -142t-205.5 -91t-231 -32q-133 0 -246.5 34.5
t-205.5 95t-162 142.5t-117.5 177t-72 199t-24.5 208q0 92 21.5 187t63 184t102.5 167t140.5 136t177 91.5t212.5 33.5q107 0 194.5 -25t155 -68.5t117 -103.5t81.5 -130t47.5 -147.5t15.5 -156.5l-254 -4q0 178 -85 271t-239 102q-112 0 -199.5 -44t-148 -119.5t-92 -177
t-31.5 -216.5q0 -111 40.5 -213t114 -180t177 -125t229.5 -47q122 0 218 37t168.5 103.5t124 158t83.5 199.5t46.5 229t14.5 247l189 103q46 -49 90 -104.5t82.5 -110t71 -106t55.5 -93.5q24 39 54.5 86t63.5 96.5t67.5 99.5t68.5 95q32 -46 65 -97t64 -101t57.5 -96
t46.5 -83l152 205h516l172 -266h-610z" />
    <glyph glyph-name="ZWSP" unicode="&#x200b;" 
 />
    <glyph glyph-name="endash" unicode="&#x2013;" horiz-adv-x="1580" 
d="M1580 901v-242h-1580v242h1580z" />
    <glyph glyph-name="emdash" unicode="&#x2014;" horiz-adv-x="1973" 
d="M1974 901v-242h-1972v242h1972z" />
    <glyph glyph-name="quoteleft" unicode="&#x2018;" horiz-adv-x="770" 
d="M221 1270v291q0 82 18.5 163.5t58 147.5t102 109t149.5 47v-158q-49 -4 -81.5 -35t-51.5 -72.5t-27 -86.5t-8 -78h168v-328h-328z" />
    <glyph glyph-name="quoteright" unicode="&#x2019;" horiz-adv-x="770" 
d="M549 1999v-291q0 -82 -18.5 -163.5t-58 -147.5t-102 -109t-149.5 -47v158q49 4 81.5 35t51.5 72.5t27 86.5t8 78h-168v328h328z" />
    <glyph glyph-name="quotedblleft" unicode="&#x201c;" horiz-adv-x="1184" 
d="M174 1270v291q0 82 18.5 163.5t58 147.5t102 109t149.5 47v-158q-49 -4 -81.5 -35t-51.5 -72.5t-27 -86.5t-8 -78h168v-328h-328zM682 1270v291q0 82 18.5 163.5t58 147.5t102 109t149.5 47v-158q-49 -4 -81.5 -35t-51.5 -72.5t-27 -86.5t-8 -78h168v-328h-328z" />
    <glyph glyph-name="quotedblright" unicode="&#x201d;" horiz-adv-x="1184" 
d="M1010 1999v-291q0 -82 -18.5 -163.5t-58 -147.5t-102 -109t-149.5 -47v158q49 4 81.5 35t51.5 72.5t27 86.5t8 78h-168v328h328zM502 1999v-291q0 -82 -18.5 -163.5t-58 -147.5t-102 -109t-149.5 -47v158q49 4 81.5 35t51.5 72.5t27 86.5t8 78h-168v328h328z" />
    <glyph glyph-name="bullet" unicode="&#x2022;" horiz-adv-x="1008" 
d="M74 860q0 80 33.5 153.5t91.5 129.5t135.5 89.5t165.5 33.5q89 0 168 -33.5t138 -89.5t93.5 -129.5t34.5 -153.5q0 -86 -34.5 -161.5t-93.5 -131.5t-138 -88.5t-168 -32.5q-88 0 -165.5 32.5t-135.5 88.5t-91.5 131.5t-33.5 161.5z" />
    <glyph glyph-name="Euro" unicode="&#x20ac;" horiz-adv-x="2150" 
d="M583 737q26 -119 78 -219t130 -173.5t182 -114.5t234 -41q111 0 204.5 44t162.5 117.5t110 168t48 196.5h275q0 -86 -25.5 -175t-73.5 -173t-118 -158t-158 -129.5t-192.5 -87.5t-222.5 -32q-199 0 -356.5 57t-273 159.5t-188.5 245.5t-102 315h-223v180h206
q-1 13 -1 25.5v26.5q0 26 1 50.5t3 50.5h-209v180h234q34 159 108 296.5t186.5 239t264 159.5t340.5 58q122 0 228.5 -29t194 -79.5t155.5 -118.5t115 -146.5t71.5 -163.5t24.5 -168h-285q0 52 -15.5 107t-46 107.5t-75 99t-101 82t-124.5 56t-146 20.5q-133 0 -236 -40.5
t-179 -111t-126 -165t-76 -203.5h635v-180h-661q-3 -41 -3 -80v-37t2 -36h662v-180h-638z" />
    <glyph glyph-name="trademark" unicode="&#x2122;" horiz-adv-x="2734" 
d="M2296 836l-2 917l-339 -917h-135l-344 921v-921h-205v1163h303l316 -852l307 852h308v-1163h-209zM713 1827v-991h-205v991h-340v172h886v-172h-341z" />
    <glyph glyph-name="uni25CC" unicode="&#x25cc;" horiz-adv-x="1868" 
d="M569 455l66 159q22 -34 47 -61.5t59 -48.5zM934 1303l74 -156q-41 9 -83 7t-73 -11zM934 303l-74 152q37 -10 68.5 -9.5t75.5 13.5zM1434 803l-156 -70q12 34 12.5 70.5t-8.5 77.5zM434 807l160 78q-6 -37 -7.5 -76.5t7.5 -79.5zM598 1159l164 -57q-43 -22 -73.5 -47
t-49.5 -56zM1274 451l-152 49q34 21 59.5 46t47.5 56zM1298 1159l-69 -164q-22 34 -51 61.5t-60 49.5z" />
    <glyph glyph-name="thothannobasethai" unicode="&#xf700;" horiz-adv-x="1565" 
d="M1430 1135q-1 -66 -19.5 -152t-48 -184.5t-68 -204t-80.5 -209.5t-84.5 -202.5t-80.5 -182.5h-377l-266 774h-218v209h430l246 -741q26 61 56 132.5t60 148.5t58.5 156t50.5 155t35.5 146t14.5 130q3 186 -90.5 279.5t-282.5 93.5q-152 0 -243 -74.5t-122 -216.5h-303
q18 115 73.5 210.5t144.5 164.5t210.5 107t272.5 38q68 0 137 -9.5t137 -31.5q48 3 80.5 20t53.5 42t30.5 55t11.5 59h295q-2 -43 -15.5 -90t-43 -90t-76.5 -78t-115 -53q32 -34 58 -75t44 -90.5t26.5 -108t7.5 -127.5z" />
    <glyph glyph-name="yoyingnobasethai" unicode="&#xf70f;" horiz-adv-x="2601" 
d="M1212 1049q0 78 -21.5 155t-72.5 138.5t-134 100t-206 40.5q-104 1 -183.5 -25t-134 -68.5t-84.5 -94.5t-36 -103q29 -17 52 -45.5t38.5 -66t24 -82t8.5 -93.5v-696h180v-209h-450v909q0 39 -5.5 78.5t-20.5 77t-41.5 70t-68.5 57.5q22 95 74.5 189t140.5 168.5
t213.5 120.5t292.5 46q135 0 240 -27t184 -74.5t133.5 -113.5t88 -143.5t48.5 -164.5t15 -177v-467q0 -89 28.5 -157.5t76 -114.5t109.5 -69.5t130 -23.5q66 0 126 21.5t106 66t73 113.5t27 164v1130h274v-1159q0 -144 -51 -250t-135.5 -175t-193.5 -102.5t-226 -33.5
q-122 0 -233.5 36t-197.5 106.5t-137 175.5t-51 243v529z" />
    <glyph glyph-name="saraulowthai" unicode="&#xf718;" 
d="M-422 -1282v397h-147v201h405v-598h-258z" />
    <glyph glyph-name="sarauulowthai" unicode="&#xf719;" 
d="M-1167 -684h409v-201q0 -96 40.5 -144t127.5 -48q168 0 168 192v201h258v-201q0 -81 -22 -153.5t-72.5 -126.5t-132 -85.5t-199.5 -31.5q-117 0 -198.5 28.5t-133 81t-75 125.5t-23.5 162h-147v201z" />
    <glyph glyph-name="phinthulowthai" unicode="&#xf71a;" 
d="M-504 -856q0 42 16 78t43 62.5t63.5 41.5t78.5 15q40 0 75.5 -15t62.5 -41.5t43 -62.5t16 -78t-16 -78t-43 -62.5t-62.5 -41.5t-75.5 -15q-42 0 -78.5 15t-63.5 41.5t-43 62.5t-16 78z" />
    <glyph glyph-name="lochula.short" unicode="&#xf71d;" horiz-adv-x="2146" 
d="M1688 0h-299l-324 1081h-12l-324 -1081h-303l-377 1679h307l226 -1376h8l319 1081h299l320 -1081h8l160 807q17 94 21 168t-14.5 126t-64 79.5t-127.5 27.5v172q78 3 142 18.5t111 47t75.5 80t36.5 117.5h319q-11 -86 -46 -149t-86.5 -106t-114.5 -68t-129 -34
q52 -15 91.5 -50t61.5 -89t23.5 -126t-21.5 -161z" />
    <glyph glyph-name="yamakkanleftthai" 
d="M-504 2421q-69 0 -113 -10t-68.5 -32t-34 -58.5t-9.5 -88.5v-45h-57q-62 0 -102 -15.5t-64 -45t-33.5 -71t-9.5 -93.5h-254q0 74 17.5 140t54.5 119.5t95.5 91t139.5 54.5q11 58 41.5 105.5t84 81t131 53.5t181.5 23v-209z" />
    <glyph glyph-name="saraamleft" horiz-adv-x="1380" 
d="M53 1192q0 85 23 156.5t63.5 129.5t96.5 101.5t121.5 73t138 44.5t147.5 15q123 0 228 -33.5t182 -101.5t120.5 -172.5t43.5 -245.5v-1159h-271v1102q0 199 -77.5 290t-225.5 91q-132 0 -213 -73.5t-90 -217.5h-287zM-1217 2224q0 58 22.5 110t60.5 90t89.5 60.5
t110.5 22.5q57 0 108.5 -22.5t90 -60.5t61.5 -90t23 -110q0 -59 -23 -110t-61.5 -89.5t-90 -60.5t-108.5 -22q-59 0 -110.5 22t-89.5 60.5t-60.5 89.5t-22.5 110zM-1049 2224q0 -23 9.5 -44t25 -36.5t36.5 -25t44 -9.5t44 9.5t36.5 25t25 36.5t9.5 44t-9.5 44t-25 36.5
t-36.5 25t-44 9.5t-44 -9.5t-36.5 -25t-25 -36.5t-9.5 -44z" />
    <glyph glyph-name="uni0E33.alt1" horiz-adv-x="1380" 
d="M53 1192q0 85 23 156.5t63.5 129.5t96.5 101.5t121.5 73t138 44.5t147.5 15q123 0 228 -33.5t182 -101.5t120.5 -172.5t43.5 -245.5v-1159h-271v1102q0 199 -77.5 290t-225.5 91q-132 0 -213 -73.5t-90 -217.5h-287zM-1217 2224q0 58 22.5 110t60.5 90t89.5 60.5
t110.5 22.5q57 0 108.5 -22.5t90 -60.5t61.5 -90t23 -110q0 -59 -23 -110t-61.5 -89.5t-90 -60.5t-108.5 -22q-59 0 -110.5 22t-89.5 60.5t-60.5 89.5t-22.5 110zM-1049 2224q0 -23 9.5 -44t25 -36.5t36.5 -25t44 -9.5t44 9.5t36.5 25t25 36.5t9.5 44t-9.5 44t-25 36.5
t-36.5 25t-44 9.5t-44 -9.5t-36.5 -25t-25 -36.5t-9.5 -44z" />
    <glyph glyph-name="saraithai.alt1" 
d="M-1311 1962l107 209h1040v-209h-1147z" />
    <glyph glyph-name="saraiithai.alt1" 
d="M-1204 2171h778v258h262v-467h-1147z" />
    <glyph glyph-name="sarauethai.alt1" 
d="M-496 2228q0 -21 8.5 -40t23.5 -32.5t34.5 -21.5t40.5 -8t40.5 8t34 21.5t23 32.5t8.5 40q0 23 -8.5 42.5t-23 34t-34 22.5t-40.5 8t-40.5 -8t-34.5 -22.5t-23.5 -34t-8.5 -42.5zM-655 2228q0 55 20.5 103.5t56.5 84.5t84.5 57t104.5 21q55 0 103.5 -21t84.5 -57
t57 -84.5t21 -103.5t-21 -103.5t-57 -84.5t-84.5 -57t-103.5 -21h-922l107 209h553q-3 15 -3.5 30t-0.5 27z" />
    <glyph glyph-name="saraueethai.alt1" 
d="M-1204 2171h344v258h258v-258h180v258h258v-467h-1147z" />
    <glyph glyph-name="saraithai.alt2" 
d="M-2109 1962l102 209h1417v-209h-1519z" />
    <glyph glyph-name="saraiithai.alt2" 
d="M-2007 2171h1155v258h262v-467h-1519z" />
    <glyph glyph-name="sarauethai.alt2" 
d="M-893 2228q0 -43 30 -72.5t77 -29.5q43 0 72.5 29.5t29.5 72.5q0 47 -29.5 77t-72.5 30q-47 0 -77 -30t-30 -77zM-1053 2228q0 55 21 103.5t57 84.5t84.5 57t104.5 21q55 0 103 -21t83 -57t55.5 -84.5t20.5 -103.5t-20.5 -103.5t-55.5 -84.5t-83 -57t-103 -21h-1335
l106 209h966q-3 15 -3.5 30t-0.5 27z" />
    <glyph glyph-name="saraueethai.alt2" 
d="M-2023 2171h737v258h258v-258h180v258h258v-467h-1535z" />
    <glyph glyph-name="maiekthai.alt2" 
d="M-852 3060h262v-443h-262v443z" />
    <glyph glyph-name="maithothai.alt2" 
d="M-1102 2621v250h-143v201h373v-250q90 0 161.5 19.5t121 53.5t76 79.5t26.5 97.5h249q0 -87 -39.5 -168.5t-119 -144.5t-200.5 -100.5t-284 -37.5h-221z" />
    <glyph glyph-name="maitrithai.alt2" 
d="M-741 2617q0 18 -4.5 48t-14 58.5t-23.5 49t-32 20.5q-20 0 -34.5 -17.5t-24.5 -44t-14.5 -57.5t-4.5 -57h-172q0 26 -4.5 57t-13.5 57.5t-22 44t-30 17.5q-20 0 -34 -20.5t-22.5 -49t-12.5 -58.5t-4 -48h-213q-6 100 13 174t54.5 123t83.5 73t99 24q65 0 114.5 -30.5
t77.5 -80.5q22 46 73 78.5t120 32.5q40 0 75.5 -13.5t64 -39.5t48 -63t25.5 -85q21 17 39 46.5t31 65.5t20.5 74t7.5 72h229q0 -69 -24 -143.5t-65.5 -138.5t-98.5 -110.5t-123 -58.5h-184z" />
    <glyph glyph-name="maichattawathai.alt2" 
d="M-595 2835v-218h-252v218h-242v191h242v214h252v-214h242v-191h-242z" />
    <glyph glyph-name="saraithai.alt3" 
d="M-2040 1962l107 209h1769v-209h-1876z" />
    <glyph glyph-name="saraiithai.alt3" 
d="M-1933 2171h1507v258h262v-467h-1876z" />
    <glyph glyph-name="sarauethai.alt3" 
d="M-496 2228q0 -21 8.5 -40t23.5 -32.5t34.5 -21.5t40.5 -8t40.5 8t34 21.5t23 32.5t8.5 40q0 23 -8.5 42.5t-23 34t-34 22.5t-40.5 8t-40.5 -8t-34.5 -22.5t-23.5 -34t-8.5 -42.5zM-655 2228q0 55 20.5 103.5t56.5 84.5t84.5 57t104.5 21q55 0 103.5 -21t84.5 -57
t57 -84.5t21 -103.5t-21 -103.5t-57 -84.5t-84.5 -57t-103.5 -21h-1651l107 209h1282q-3 15 -3.5 30t-0.5 27z" />
    <glyph glyph-name="saraueethai.alt3" 
d="M-1933 2171h1073v258h258v-258h180v258h258v-467h-1876z" />
    <glyph glyph-name="maiekthai.alt4" 
d="M-426 2896h262v-442h-262v442z" />
    <glyph glyph-name="maithothai.alt4" 
d="M-741 2458v249h-144v201h373v-250q91 0 162.5 19.5t121 53.5t75.5 79.5t26 97.5h250q0 -87 -39.5 -168.5t-119.5 -144t-200.5 -100t-283.5 -37.5h-221z" />
    <glyph glyph-name="maitrithai.alt4" 
d="M-393 2454q0 18 -4.5 48t-14 58.5t-23.5 49t-32 20.5t-32 -18t-23.5 -44.5t-14 -57t-4.5 -56.5h-176q0 26 -4.5 56.5t-13 57t-21.5 44.5t-30 18q-19 0 -33 -20.5t-23 -49t-13.5 -58.5t-4.5 -48h-209q-6 100 13 173.5t54 122.5t83 73t100 24q62 0 112.5 -30.5t75.5 -80.5
q25 47 77 79t120 32q38 0 73 -13.5t63.5 -39.5t48.5 -63t28 -85q20 17 39.5 46.5t35.5 65.5t25.5 74t9.5 72h226q0 -69 -26 -143.5t-69.5 -138.5t-102 -110t-122.5 -58h-188z" />
    <glyph glyph-name="maichattawathai.alt4" 
d="M-169 2672v-218h-252v218h-242v191h242v214h252v-214h242v-191h-242z" />
    <glyph glyph-name="maiekthai.alt5" 
d="M-934 2896h262v-442h-262v442z" />
    <glyph glyph-name="maithothai.alt5" 
d="M-1184 2454v249h-143v201h373v-250q90 0 161.5 19.5t121 53.5t76 79.5t26.5 97.5h250q0 -87 -39.5 -168.5t-119.5 -144t-201 -100t-284 -37.5h-221z" />
    <glyph glyph-name="maitrithai.alt5" 
d="M-823 2454q0 18 -4.5 48t-14 58.5t-23.5 49t-32 20.5q-20 0 -34.5 -18t-24.5 -44.5t-14.5 -57t-4.5 -56.5h-172q0 26 -4.5 56.5t-13.5 57t-22 44.5t-30 18q-20 0 -34 -20.5t-22.5 -49t-12.5 -58.5t-4 -48h-213q-6 100 13 173.5t54.5 122.5t83.5 73t99 24
q65 0 114.5 -30.5t77.5 -80.5q22 47 73.5 79t119.5 32q40 0 75.5 -13.5t64 -39.5t48 -63t25.5 -85q21 17 39 46.5t31 65.5t20.5 74t7.5 72h229q0 -69 -24 -143.5t-65.5 -138.5t-98.5 -110t-123 -58h-184z" />
    <glyph glyph-name="maichattawathai.alt5" 
d="M-677 2671v-218h-252v218h-242v191h242v214h252v-214h242v-191h-242z" />
    <glyph glyph-name="sarauthai.alt6" 
d="M-696 -819v397h-148v201h406v-598h-258z" />
    <glyph glyph-name="sarauuthai.alt6" 
d="M-1225 -221h410v-201q0 -96 40.5 -144t127.5 -48q83 0 125.5 48t42.5 144v201h258v-201q0 -81 -22.5 -153.5t-72.5 -126.5t-131.5 -85.5t-199.5 -31.5q-117 0 -198.5 28.5t-133 81t-75 125.5t-23.5 162h-148v201z" />
    <glyph glyph-name="phinthuthai.alt6" 
d="M-840 -348q0 41 16 77.5t43 64t63.5 43.5t78.5 16q40 0 76 -16t63 -43.5t42.5 -64t15.5 -77.5q0 -40 -15.5 -76t-42.5 -63t-63 -42.5t-76 -15.5q-42 0 -78.5 15.5t-63.5 42.5t-43 63t-16 76z" />
    <glyph glyph-name="sarauthai.alt7" 
d="M-668 -819v397h-147v201h405v-598h-258z" />
    <glyph glyph-name="sarauuthai.alt7" 
d="M-1454 -221h410v-201q0 -96 40.5 -144t126.5 -48q168 0 168 192v201h258v-201q0 -81 -22 -153.5t-72.5 -126.5t-132 -85.5t-199.5 -31.5q-117 0 -198.5 28.5t-133 81t-75 125.5t-23.5 162h-147v201z" />
    <glyph glyph-name="phinthuthai.alt7" 
d="M-823 -348q0 41 16 77.5t43 64t63.5 43.5t77.5 16q40 0 76 -16t63 -43.5t42.5 -64t15.5 -77.5q0 -40 -15.5 -76t-42.5 -63t-63 -42.5t-76 -15.5q-41 0 -77.5 15.5t-63.5 42.5t-43 63t-16 76z" />
    <glyph glyph-name="maihanakatthai.alt8" 
d="M-1225 1962v352h262v-143h1291v-209h-1553z" />
    <glyph glyph-name="maiekthai.alt8" 
d="M-893 3060h262v-443h-262v443z" />
    <glyph glyph-name="maithothai.alt8" 
d="M-1130 2621v250h-144v201h373v-250q91 0 162.5 19.5t121 53.5t75.5 79.5t26 97.5h250q0 -87 -39.5 -168.5t-119.5 -144.5t-200.5 -100.5t-283.5 -37.5h-221z" />
    <glyph glyph-name="maitrithai.alt8" 
d="M-618 2617q0 18 -4.5 48t-14 58.5t-23.5 49t-32 20.5q-20 0 -34.5 -17.5t-24.5 -44t-14.5 -57.5t-4.5 -57h-172q0 26 -4.5 57t-13.5 57.5t-22 44t-30 17.5q-20 0 -34 -20.5t-22.5 -49t-12.5 -58.5t-4 -48h-213q-6 100 13 174t54.5 123t83 73t98.5 24q65 0 115 -30.5
t78 -80.5q22 46 73 78.5t119 32.5q40 0 76 -13.5t64.5 -39.5t47.5 -63t25 -85q22 17 40 46.5t31 65.5t20.5 74t7.5 72h229q0 -69 -24 -143.5t-65.5 -138.5t-98.5 -110.5t-123 -58.5h-184z" />
    <glyph glyph-name="maichattawathai.alt8" 
d="M-636 2835v-218h-252v218h-242v191h242v214h252v-214h242v-191h-242z" />
    <glyph glyph-name="maiekupperleftthai.alt11" 
d="M-1054 3060h262v-443h-262v443z" />
    <glyph glyph-name="maichattawaupperleftthai.alt11" 
d="M-797 2835v-218h-252v218h-242v191h242v214h252v-214h242v-191h-242z" />
    <glyph glyph-name="sarauthai.alt9" 
d="M-732 -819v397h-147v201h405v-598h-258z" />
    <glyph glyph-name="sarauuthai.alt9" 
d="M-1267 -221h409v-201q0 -96 40.5 -144t127.5 -48q168 0 168 192v201h258v-201q0 -81 -22 -153.5t-72.5 -126.5t-132 -85.5t-199.5 -31.5q-117 0 -198.5 28.5t-133 81t-75 125.5t-23.5 162h-147v201z" />
    <glyph glyph-name="phinthuthai.alt9" 
d="M-904 -348q0 41 16 77.5t43 64t63.5 43.5t78.5 16q40 0 75.5 -16t62.5 -43.5t43 -64t16 -77.5q0 -40 -16 -76t-43 -63t-62.5 -42.5t-75.5 -15.5q-42 0 -78.5 15.5t-63.5 42.5t-43 63t-16 76z" />
    </font>
</defs>
</svg>
